<?xml version="1.0" standalone="no"?>
<!DOCTYPE svg PUBLIC "-//W3C//DTD SVG 1.1//EN" "http://www.w3.org/Graphics/SVG/1.1/DTD/svg11.dtd" >
<svg xmlns="http://www.w3.org/2000/svg" xmlns:xlink="http://www.w3.org/1999/xlink" version="1.1">
<metadata>
Created by FontForge 20170731 at Wed Oct 19 13:27:48 2016
 By Aleksey,,,
Copyright 2015 The Rubik Project Authors
</metadata>
<defs>
<font id="Rubik-Light" horiz-adv-x="0" >
  <font-face 
    font-family="Rubik Light"
    font-weight="300"
    font-stretch="normal"
    units-per-em="1000"
    panose-1="0 0 4 0 0 0 0 0 0 0"
    ascent="800"
    descent="-200"
    x-height="520"
    cap-height="700"
    bbox="-479 -264 1071 905"
    underline-thickness="50"
    underline-position="-125"
    unicode-range="U+000D-FB4B"
  />
<missing-glyph horiz-adv-x="290" 
 />
    <glyph glyph-name="fi" unicode="fi" horiz-adv-x="495" 
d="M136 6q-6 6 -6 16v440h-89q-10 0 -16 6t-6 16v14q0 10 6 16t16 6h89v57q0 76 33 119.5t118 43.5h111q10 0 16 -6t6 -16v-14q0 -10 -6 -16t-16 -6h-111q-51 0 -70.5 -26.5t-19.5 -83.5v-52h201q10 0 16 -6t6 -16v-476q0 -10 -6 -16t-16 -6h-17q-10 0 -16 6t-6 16v440h-162
v-440q0 -10 -6 -16t-16 -6h-17q-10 0 -16 6z" />
    <glyph glyph-name="fl" unicode="fl" horiz-adv-x="555" 
d="M136 6q-6 6 -6 16v440h-89q-10 0 -16 6t-6 16v14q0 10 6 16t16 6h89v57q0 76 33 119.5t118 43.5h52q10 0 16 -6t6 -16v-14q0 -10 -6 -16t-16 -6h-52q-51 0 -70.5 -26.5t-19.5 -83.5v-52h221v198q0 10 6 16t16 6h17q10 0 16 -6t6 -16v-696q0 -10 -6 -16t-16 -6h-17
q-10 0 -16 6t-6 16v440h-221v-440q0 -10 -6 -16t-16 -6h-17q-10 0 -16 6z" />
    <glyph glyph-name="f_f" unicode="ff" horiz-adv-x="642" 
d="M136 6q-6 6 -6 16v440h-89q-10 0 -16 6t-6 16v14q0 10 6 16t16 6h89v57q0 76 33 119.5t118 43.5h52q10 0 16 -6t6 -16v-14q0 -10 -6 -16t-16 -6h-52q-51 0 -70.5 -26.5t-19.5 -83.5v-52h221v57q0 76 33 119.5t118 43.5h52q10 0 16 -6t6 -16v-14q0 -10 -6 -16t-16 -6h-52
q-51 0 -70.5 -26.5t-19.5 -83.5v-52h132q10 0 16 -6t6 -16v-14q0 -10 -6 -16t-16 -6h-132v-440q0 -10 -6 -16t-16 -6h-17q-10 0 -16 6t-6 16v440h-221v-440q0 -10 -6 -16t-16 -6h-17q-10 0 -16 6z" />
    <glyph glyph-name="f_f_i" unicode="ffi" horiz-adv-x="777" 
d="M136 6q-6 6 -6 16v440h-89q-10 0 -16 6t-6 16v14q0 10 6 16t16 6h89v57q0 76 33 119.5t118 43.5h52q10 0 16 -6t6 -16v-14q0 -10 -6 -16t-16 -6h-52q-51 0 -70.5 -26.5t-19.5 -83.5v-52h221v57q0 76 33 119.5t118 43.5h111q10 0 16 -6t6 -16v-14q0 -10 -6 -16t-16 -6
h-111q-51 0 -70.5 -26.5t-19.5 -83.5v-52h201q10 0 16 -6t6 -16v-476q0 -10 -6 -16t-16 -6h-17q-10 0 -16 6t-6 16v440h-162v-440q0 -10 -6 -16t-16 -6h-17q-10 0 -16 6t-6 16v440h-221v-440q0 -10 -6 -16t-16 -6h-17q-10 0 -16 6z" />
    <glyph glyph-name="f_f_l" unicode="ffl" horiz-adv-x="837" 
d="M136 6q-6 6 -6 16v440h-89q-10 0 -16 6t-6 16v14q0 10 6 16t16 6h89v57q0 76 33 119.5t118 43.5h52q10 0 16 -6t6 -16v-14q0 -10 -6 -16t-16 -6h-52q-51 0 -70.5 -26.5t-19.5 -83.5v-52h221v57q0 76 33 119.5t118 43.5h52q10 0 16 -6t6 -16v-14q0 -10 -6 -16t-16 -6h-52
q-51 0 -70.5 -26.5t-19.5 -83.5v-52h221v198q0 10 6 16t16 6h17q10 0 16 -6t6 -16v-696q0 -10 -6 -16t-16 -6h-17q-10 0 -16 6t-6 16v440h-221v-440q0 -10 -6 -16t-16 -6h-17q-10 0 -16 6t-6 16v440h-221v-440q0 -10 -6 -16t-16 -6h-17q-10 0 -16 6z" />
    <glyph glyph-name=".notdef" horiz-adv-x="290" 
 />
    <glyph glyph-name=".null" 
 />
    <glyph glyph-name="nonmarkingreturn" unicode="&#xd;" horiz-adv-x="258" 
 />
    <glyph glyph-name="NULL" 
 />
    <glyph glyph-name="NULL" 
 />
    <glyph glyph-name="space" unicode=" " horiz-adv-x="258" 
 />
    <glyph glyph-name="exclam" unicode="!" horiz-adv-x="225" 
d="M88 149q-6 6 -6 16v513q0 10 6 16t16 6h17q10 0 16 -6t6 -16v-513q0 -10 -6 -16t-16 -6h-17q-10 0 -16 6zM77 6q-6 6 -6 16v38q0 10 6 16.5t16 6.5h38q10 0 16.5 -6.5t6.5 -16.5v-38q0 -10 -6.5 -16t-16.5 -6h-38q-10 0 -16 6z" />
    <glyph glyph-name="quotedbl" unicode="&#x22;" horiz-adv-x="340" 
d="M77 527l-15 163v2q0 8 5.5 13t13.5 5h45q9 0 14.5 -5.5t4.5 -14.5l-15 -163q-2 -19 -17 -19h-19q-15 0 -17 19zM210 527l-15 163v2q0 8 5.5 13t13.5 5h45q9 0 14.5 -5.5t4.5 -14.5l-15 -163q-2 -19 -17 -19h-19q-15 0 -17 19z" />
    <glyph glyph-name="numbersign" unicode="#" horiz-adv-x="701" 
d="M170 45q-6 6 -5 15l20 131h-111q-10 0 -16 6t-6 16v14q0 10 6 16t16 6h119l29 196h-122q-10 0 -16 6t-6 16v14q0 10 6 16t16 6h131l20 131q2 9 7.5 15t14.5 6h18q9 0 15 -6t5 -15l-20 -131h167l20 131q2 9 7.5 15t14.5 6h18q9 0 15 -6t5 -15l-20 -131h109q10 0 16 -6
t6 -16v-14q0 -10 -6 -16t-16 -6h-117l-29 -196h120q10 0 16 -6t6 -16v-14q0 -10 -6 -16t-16 -6h-129l-19 -131q-2 -9 -8 -15t-15 -6h-18q-9 0 -15 6t-5 15l20 131h-167l-19 -131q-2 -9 -8 -15t-15 -6h-18q-9 0 -15 6zM254 249h166l29 196h-166z" />
    <glyph glyph-name="dollar" unicode="$" horiz-adv-x="596" 
d="M273 -94q-6 6 -6 16v70q-68 5 -118 31t-76.5 64.5t-28.5 82.5q0 8 6 14t15 6h20q18 0 22 -20q7 -48 55 -84t138 -36q95 0 141.5 34.5t46.5 96.5q0 38 -22.5 62.5t-65.5 43t-130 46.5q-77 25 -120.5 49t-64.5 59t-21 89q0 73 53.5 122.5t149.5 56.5v69q0 10 6 16t16 6h19
q10 0 16 -6t6 -16v-70q63 -6 108 -33t68 -64.5t25 -75.5q0 -8 -5.5 -14t-15.5 -6h-20q-7 0 -14 4.5t-8 15.5q-6 50 -53.5 82.5t-119.5 32.5q-77 0 -122.5 -30t-45.5 -90q0 -39 20.5 -64.5t61.5 -44t121 -44.5q82 -26 128 -50t69.5 -58t23.5 -88q0 -84 -58.5 -133.5
t-162.5 -56.5v-69q0 -10 -6 -16t-16 -6h-19q-10 0 -16 6z" />
    <glyph glyph-name="percent" unicode="%" horiz-adv-x="741" 
d="M93.5 384.5q-36.5 34.5 -39.5 95.5q-1 17 -1 43q0 28 1 46q3 63 38 99.5t102 36.5t102 -36.5t38 -99.5q2 -36 2 -46q0 -9 -2 -43q-3 -61 -39.5 -95.5t-100.5 -34.5t-100.5 34.5zM93.5 5.5q-5.5 5.5 -5.5 14.5q0 6 4 11l493 650q8 11 14.5 15t18.5 4h17q9 0 14.5 -5.5
t5.5 -14.5q0 -6 -4 -11l-493 -650q-8 -10 -14.5 -14.5t-18.5 -4.5h-17q-9 0 -14.5 5.5zM254 425q19 24 22 58q2 38 2 42q0 7 -2 41q-2 35 -21.5 59t-60.5 24t-60.5 -24t-21.5 -59q-1 -17 -1 -41q0 -23 1 -42q3 -34 22 -58t60 -24t60 24zM446.5 30.5q-36.5 36.5 -39.5 98.5
q-1 17 -1 43q0 28 1 46q3 63 38 99.5t102 36.5t102 -36.5t38 -99.5q2 -36 2 -46q0 -9 -2 -43q-3 -62 -39.5 -98.5t-100.5 -36.5t-100.5 36.5zM607 74q19 24 22 58q2 38 2 42q0 7 -2 41q-2 35 -21.5 59t-60.5 24t-60.5 -24t-21.5 -59q-1 -17 -1 -41q0 -23 1 -42q3 -34 22 -58
t60 -24t60 24z" />
    <glyph glyph-name="ampersand" unicode="&#x26;" horiz-adv-x="674" 
d="M167 15q-50 25 -78 69.5t-28 99.5q0 64 38 107.5t106 83.5q-52 55 -72.5 93t-20.5 82q0 43 22.5 80t62.5 58.5t89 21.5q50 0 89.5 -21t62 -57.5t22.5 -81.5q0 -44 -21 -77.5t-53.5 -57.5t-82.5 -52l191 -187q44 74 55 168q1 10 6.5 16t15.5 6h19q10 0 16 -6t6 -16
q-4 -112 -72 -213l98 -96q9 -9 9 -16q0 -19 -20 -19h-22q-18 0 -28 10l-74 74q-89 -94 -222 -94q-64 0 -114 25zM363 475.5q34 30.5 34 74.5q0 45 -31.5 72.5t-79.5 27.5q-46 0 -78.5 -27.5t-32.5 -72.5q0 -31 17.5 -61t67.5 -82q69 38 103 68.5zM373.5 70q45.5 20 83.5 59
l-210 203q-60 -34 -91.5 -67.5t-31.5 -80.5q0 -62 46 -98t111 -36q47 0 92.5 20z" />
    <glyph glyph-name="quotesingle" unicode="'" horiz-adv-x="207" 
d="M77 527l-15 163v2q0 8 5.5 13t13.5 5h45q9 0 14.5 -5.5t4.5 -14.5l-15 -163q-2 -19 -17 -19h-19q-15 0 -17 19z" />
    <glyph glyph-name="parenleft" unicode="(" horiz-adv-x="319" 
d="M144 -110q-45 49 -62.5 148.5t-17.5 270.5t17.5 270.5t62.5 148t128 48.5q9 0 15.5 -6.5t6.5 -15.5v-14q0 -9 -6 -15.5t-13 -6.5q-58 0 -90.5 -36.5t-47 -124.5t-14.5 -248t14.5 -248t47 -125t90.5 -37q7 0 13 -6.5t6 -15.5v-14q0 -9 -6.5 -15.5t-15.5 -6.5
q-83 0 -128 49z" />
    <glyph glyph-name="parenright" unicode=")" horiz-adv-x="319" 
d="M31.5 -152.5q-6.5 6.5 -6.5 15.5v14q0 9 6 15.5t13 6.5q58 0 90.5 37t47 125t14.5 248t-14.5 248t-47 124.5t-90.5 36.5q-7 0 -13 6.5t-6 15.5v14q0 9 6.5 15.5t15.5 6.5q83 0 128 -48.5t62.5 -148t17.5 -270.5t-17.5 -270.5t-62.5 -148.5t-128 -49q-9 0 -15.5 6.5z" />
    <glyph glyph-name="asterisk" unicode="*" horiz-adv-x="446" 
d="M110 447q-9 6 -9 18q0 6 4 12q0 1 6 7l76 72l-104 13l-8 2q-8 2 -12 10.5t-2 17.5l13 38q2 8 10.5 12t16.5 2l8 -4l92 -50l-19 103l-1 8q0 8 6.5 15t15.5 7h40q9 0 15.5 -7t6.5 -15l-1 -8l-20 -104l93 51l8 4q2 1 5 1q8 0 14.5 -4t7.5 -11l13 -38l1 -6q0 -7 -4.5 -13.5
t-10.5 -8.5l-8 -2l-105 -14l77 -71q6 -6 6 -7q4 -6 4 -12q0 -12 -9 -18l-32 -24q-6 -3 -13 -3q-13 0 -18 8q0 1 -1 2t-3 5l-46 96l-46 -96q-2 -4 -3 -5t-1 -2q-5 -8 -18 -8q-7 0 -13 3z" />
    <glyph glyph-name="plus" unicode="+" horiz-adv-x="628" 
d="M290 39q-6 6 -6 16v219h-217q-10 0 -16 6t-6 16v14q0 10 6 16t16 6h217v213q0 10 6 16t16 6h15q10 0 16 -6t6 -16v-213h218q10 0 16 -6t6 -16v-14q0 -10 -6 -16t-16 -6h-218v-219q0 -10 -6 -16t-16 -6h-15q-10 0 -16 6z" />
    <glyph glyph-name="comma" unicode="," horiz-adv-x="237" 
d="M61 -69q-4 6 -2 15l19 120q3 27 25 27h45q7 0 11 -5t4 -11q0 -9 -4 -18l-43 -113q-5 -11 -10.5 -16t-15.5 -5h-17q-8 0 -12 6z" />
    <glyph glyph-name="hyphen" unicode="-" horiz-adv-x="487" 
d="M80 277q-6 6 -6 16v14q0 10 6 16t16 6h295q10 0 16 -6t6 -16v-14q0 -10 -6 -16t-16 -6h-295q-10 0 -16 6z" />
    <glyph glyph-name="period" unicode="." horiz-adv-x="238" 
d="M79 6q-6 6 -6 16v48q0 10 6 16.5t16 6.5h48q10 0 16.5 -6.5t6.5 -16.5v-48q0 -10 -6.5 -16t-16.5 -6h-48q-10 0 -16 6z" />
    <glyph glyph-name="slash" unicode="/" horiz-adv-x="459" 
d="M33 -78q-6 6 -6 14q0 4 3 12l344 823q2 5 7.5 10t14.5 5h17q8 0 14 -6t6 -14q0 -4 -3 -12l-344 -823q-2 -5 -7.5 -10t-14.5 -5h-17q-8 0 -14 6z" />
    <glyph glyph-name="zero" unicode="0" horiz-adv-x="616" 
d="M126.5 66q-55.5 76 -58.5 200l-1 83l1 85q3 124 58.5 200t181.5 76t181.5 -76t58.5 -200q1 -28 1 -85q0 -56 -1 -83q-3 -124 -58.5 -200t-181.5 -76t-181.5 76zM438.5 107.5q44.5 57.5 46.5 163.5q1 29 1 80t-1 78q-2 104 -46.5 162.5t-130.5 58.5t-130.5 -58.5
t-46.5 -162.5l-1 -78l1 -80q2 -106 46.5 -163.5t130.5 -57.5t130.5 57.5z" />
    <glyph glyph-name="one" unicode="1" horiz-adv-x="398" 
d="M260 6q-6 6 -6 16v596l-179 -138q-8 -5 -14 -5q-10 0 -17 9l-11 14q-5 7 -5 14q0 10 9 17l213 164q10 7 26 7h19q10 0 16 -6t6 -16v-656q0 -10 -6 -16t-16 -6h-19q-10 0 -16 6z" />
    <glyph glyph-name="two" unicode="2" horiz-adv-x="560" 
d="M58 6q-6 6 -6 16v15q0 20 25 42l259 259q55 51 74 86t19 83q0 67 -38.5 105t-109.5 38q-67 0 -107 -39t-48 -105q-1 -11 -8.5 -17t-14.5 -6h-20q-10 0 -15.5 5.5t-5.5 13.5q2 49 26 97t73 79.5t120 31.5q107 0 159 -58t52 -145q0 -60 -26 -108t-83 -101l-234 -238h335
q11 0 17 -6t6 -17v-15q0 -10 -6.5 -16t-16.5 -6h-410q-10 0 -16 6z" />
    <glyph glyph-name="three" unicode="3" horiz-adv-x="576" 
d="M160.5 14q-53.5 24 -82.5 63t-31 84q0 9 6 14t15 5h14q10 0 17 -4.5t10 -18.5q14 -59 63.5 -83t113.5 -24q80 0 128 38t48 110q0 138 -166 138h-88q-10 0 -16 6t-6 16v15q0 11 9 24l206 243h-302q-10 0 -16 6t-6 16v15q0 10 6 16.5t16 6.5h373q11 0 17 -6t6 -17v-15
q0 -9 -8 -19l-211 -247h20q106 0 167.5 -50t61.5 -148q0 -64 -31 -111.5t-85 -72t-123 -24.5q-72 0 -125.5 24z" />
    <glyph glyph-name="four" unicode="4" horiz-adv-x="595" 
d="M390 6q-6 6 -6 16v158h-330q-10 0 -16 6t-6 16v16q0 15 11 30l304 435q5 8 15 12.5t22 4.5h41q10 0 16 -6t6 -16v-438h91q10 0 16 -6t6 -16v-16q0 -10 -6 -16t-16 -6h-91v-158q0 -10 -6 -16t-16 -6h-19q-10 0 -16 6zM111 240h273v389z" />
    <glyph glyph-name="five" unicode="5" horiz-adv-x="572" 
d="M158.5 16.5q-51.5 26.5 -79 68.5t-29.5 90v2q0 8 5.5 12.5t14.5 4.5h19q10 0 16 -4.5t9 -18.5q15 -61 61 -91t105 -30q77 0 127.5 46t50.5 128q0 50 -23.5 87t-64.5 57t-90 20q-40 0 -64.5 -10.5t-49.5 -28.5q-15 -11 -24.5 -16t-20.5 -5h-18q-9 0 -16 6.5t-6 15.5
l30 327q1 11 6.5 17t15.5 6h326q10 0 16 -6t6 -16v-16q0 -10 -6 -16t-16 -6h-287l-21 -226q53 34 129 34q68 0 122.5 -26t86.5 -76.5t32 -121.5q0 -75 -32 -128t-86.5 -79.5t-122.5 -26.5q-70 0 -121.5 26.5z" />
    <glyph glyph-name="six" unicode="6" horiz-adv-x="582" 
d="M166 23q-55 33 -83 87t-28 116q0 87 63 177l197 277q1 2 5.5 7.5t11 9t14.5 3.5h19q9 0 14.5 -6.5t5.5 -15.5q0 -5 -5 -13l-150 -212q30 8 68 8q77 0 132 -32.5t83 -86.5t28 -116t-28 -116t-83 -87t-132 -33t-132 33zM387 70.5q41 20.5 66 60.5t25 95t-25 94.5t-66 60
t-89 20.5t-89 -20.5t-66 -60t-25 -94.5t25 -95t66 -60.5t89 -20.5t89 20.5z" />
    <glyph glyph-name="seven" unicode="7" horiz-adv-x="487" 
d="M138.5 6.5q-5.5 6.5 -5.5 15.5l2 9l257 609h-341q-10 0 -16 6t-6 16v15q0 10 6 16.5t16 6.5h386q11 0 17 -6t6 -17v-15q0 -19 -7 -37l-253 -600q-5 -12 -10.5 -18.5t-15.5 -6.5h-21q-9 0 -14.5 6.5z" />
    <glyph glyph-name="eight" unicode="8" horiz-adv-x="618" 
d="M182.5 14q-56.5 24 -89.5 71t-33 112q0 62 30 107t83 70q-42 23 -65 61.5t-23 90.5q0 87 63.5 135.5t160.5 48.5t160.5 -48.5t63.5 -135.5q0 -52 -23.5 -90.5t-64.5 -61.5q53 -25 83 -70t30 -107q0 -65 -33 -112t-89.5 -71t-126.5 -24t-126.5 24zM423.5 438
q46.5 33 46.5 88q0 57 -46 90.5t-115 33.5t-115 -33.5t-46 -90.5t46 -90t115 -33q68 2 114.5 35zM441.5 90q53.5 40 53.5 107q0 66 -53 106t-133 40t-133 -40t-53 -106q0 -67 53.5 -107t132.5 -40t132.5 40z" />
    <glyph glyph-name="nine" unicode="9" horiz-adv-x="572" 
d="M186.5 6.5q-5.5 6.5 -5.5 15.5q0 6 5 13l158 222q-30 -8 -65 -8q-76 0 -129.5 33t-80.5 86t-27 111t27 111t80.5 86.5t129.5 33.5t130 -33.5t81 -86.5t27 -111q0 -52 -17 -92t-42 -76l-206 -291q-1 -2 -5.5 -7.5t-11 -9t-14.5 -3.5h-20q-9 0 -14.5 6.5zM366 330
q40 21 64 60t24 89q0 51 -24 90t-64 60t-87 21t-87 -21t-63.5 -60t-23.5 -90t23.5 -89.5t63.5 -59.5t87 -21t87 21z" />
    <glyph glyph-name="colon" unicode=":" horiz-adv-x="241" 
d="M80 356q-6 6 -6 16v48q0 10 6 16.5t16 6.5h48q10 0 16.5 -6.5t6.5 -16.5v-48q0 -10 -6.5 -16t-16.5 -6h-48q-10 0 -16 6zM80 6q-6 6 -6 16v48q0 10 6 16.5t16 6.5h48q10 0 16.5 -6.5t6.5 -16.5v-48q0 -10 -6.5 -16t-16.5 -6h-48q-10 0 -16 6z" />
    <glyph glyph-name="semicolon" unicode=";" horiz-adv-x="259" 
d="M92 356q-6 6 -6 16v48q0 10 6 16.5t16 6.5h48q10 0 16.5 -6.5t6.5 -16.5v-48q0 -10 -6.5 -16t-16.5 -6h-48q-10 0 -16 6zM76 -69q-4 6 -2 15l19 120q3 27 25 27h45q6 0 10.5 -5t4.5 -11q0 -9 -4 -18l-43 -113q-5 -11 -10.5 -16t-15.5 -5h-17q-8 0 -12 6z" />
    <glyph glyph-name="less" unicode="&#x3c;" horiz-adv-x="481" 
d="M363 96l-295 204q-16 11 -22.5 21.5t-6.5 24.5v12q0 14 6.5 24.5t22.5 21.5l295 204q18 12 27 12t14.5 -5.5t5.5 -14.5v-17q0 -10 -4.5 -16.5t-16.5 -14.5l-289 -200l289 -200q12 -8 16.5 -14.5t4.5 -16.5v-17q0 -9 -5.5 -14.5t-14.5 -5.5t-27 12z" />
    <glyph glyph-name="equal" unicode="=" horiz-adv-x="571" 
d="M82 402q-6 6 -6 16v14q0 10 6 16t16 6h375q10 0 16 -6t6 -16v-14q0 -10 -6 -16t-16 -6h-375q-10 0 -16 6zM82 152q-6 6 -6 16v14q0 10 6 16t16 6h375q10 0 16 -6t6 -16v-14q0 -10 -6 -16t-16 -6h-375q-10 0 -16 6z" />
    <glyph glyph-name="greater" unicode="&#x3e;" horiz-adv-x="480" 
d="M76.5 89.5q-5.5 5.5 -5.5 14.5v17q0 10 4.5 16.5t16.5 14.5l289 200l-289 200q-12 8 -16.5 14.5t-4.5 16.5v17q0 9 5.5 14.5t14.5 5.5t27 -12l295 -204q16 -11 22.5 -21.5t6.5 -24.5v-12q0 -14 -6.5 -24.5t-22.5 -21.5l-295 -204q-18 -12 -27 -12t-14.5 5.5z" />
    <glyph glyph-name="question" unicode="?" horiz-adv-x="503" 
d="M231 149q-6 6 -6 16v48q0 41 14 74t34 57.5t53 58.5q41 43 59.5 70.5t18.5 62.5q0 53 -45 84.5t-104 31.5q-63 0 -105 -33t-54 -106q-4 -22 -24 -22h-16q-9 0 -15 5.5t-6 14.5q1 55 30 100.5t78.5 72t111.5 26.5q67 0 114.5 -24t71 -64t23.5 -86q0 -52 -24 -90t-71 -87
q-42 -44 -62.5 -75t-20.5 -71v-48q0 -10 -6 -16t-16 -6h-17q-10 0 -16 6zM219 6q-6 6 -6 16v38q0 10 6 16.5t16 6.5h38q10 0 16.5 -6.5t6.5 -16.5v-38q0 -10 -6.5 -16t-16.5 -6h-38q-10 0 -16 6z" />
    <glyph glyph-name="at" unicode="@" horiz-adv-x="826" 
d="M166.5 -36q-86.5 77 -102.5 223q-3 29 -3 87q0 59 3 84q17 144 104 223.5t235 79.5q170 0 258.5 -77.5t95.5 -225.5q2 -42 2 -64q0 -49 -2 -69q-9 -146 -129 -146q-42 0 -67.5 19t-38.5 40q-41 -69 -125 -69q-76 0 -120 53.5t-44 150.5t44.5 151t119.5 54q38 0 62 -14
t41 -35v19q0 10 6 16t16 6h17q10 0 16 -6t6 -16v-218q0 -45 18.5 -69t48.5 -24q39 0 53 29.5t15 64.5q2 20 2 64q0 38 -2 58q-9 124 -78.5 187t-214.5 63q-121 0 -192.5 -65t-85.5 -185q-3 -25 -3 -79q0 -53 3 -82q13 -118 84.5 -182.5t193.5 -64.5q68 0 112.5 12t60 22
t49.5 36q1 1 7.5 6.5t16.5 5.5h26q9 0 15 -6t6 -15q0 -7 -5 -14q-47 -48 -114 -76.5t-174 -28.5q-150 0 -236.5 77zM476.5 165.5q23.5 38.5 23.5 107.5t-23.5 108t-79.5 39q-54 0 -78.5 -39.5t-24.5 -107.5q0 -63 25 -104.5t78 -41.5q56 0 79.5 38.5z" />
    <glyph glyph-name="A" unicode="A" horiz-adv-x="650" 
d="M30 6q-6 6 -6 14l2 11l253 649q8 20 29 20h34q21 0 29 -20l253 -649l2 -11q0 -8 -6 -14t-14 -6h-20q-9 0 -14.5 5t-7.5 10l-62 160h-354l-62 -160q-2 -5 -7.5 -10t-14.5 -5h-20q-8 0 -14 6zM172 235h306l-153 394z" />
    <glyph glyph-name="B" unicode="B" horiz-adv-x="653" 
d="M100 6q-6 6 -6 16v655q0 10 6 16.5t16 6.5h261q99 0 150 -51t51 -128q0 -59 -26 -97t-62 -55q43 -22 72.5 -67t29.5 -104q0 -52 -24.5 -97.5t-71.5 -73t-112 -27.5h-268q-10 0 -16 6zM364 396q74 0 112.5 32.5t38.5 92.5q0 59 -38.5 89t-112.5 30h-207v-244h207zM374 60
q73 0 114 38.5t41 99.5q0 62 -41 100t-114 38h-217v-276h217z" />
    <glyph glyph-name="C" unicode="C" horiz-adv-x="651" 
d="M136 63.5q-65 73.5 -70 197.5q-1 27 -1 88q0 62 1 90q5 124 70 197.5t195 73.5q89 0 148 -32.5t87.5 -82t31.5 -101.5v-2q0 -8 -6 -13t-15 -5h-20q-18 0 -22 21q-19 85 -69 120t-135 35q-94 0 -146 -53t-56 -163q-1 -27 -1 -83t1 -85q4 -110 56 -163t146 -53q85 0 135 35
t69 120q4 21 22 21h20q9 0 15.5 -5.5t5.5 -14.5q-3 -52 -31.5 -101.5t-87.5 -82t-148 -32.5q-130 0 -195 73.5z" />
    <glyph glyph-name="D" unicode="D" horiz-adv-x="677" 
d="M100 6q-6 6 -6 16v655q0 10 6 16.5t16 6.5h213q104 0 164.5 -30.5t86 -89.5t27.5 -150q1 -30 1 -79q0 -50 -1 -80q-2 -96 -27.5 -154.5t-84.5 -87.5t-161 -29h-218q-10 0 -16 6zM329 60q80 0 126 21.5t66.5 68t22.5 126.5q1 30 1 75q0 44 -1 74q-2 112 -52.5 163.5
t-167.5 51.5h-167v-580h172z" />
    <glyph glyph-name="E" unicode="E" horiz-adv-x="592" 
d="M100 6q-6 6 -6 16v655q0 10 6 16.5t16 6.5h390q11 0 17 -6t6 -17v-15q0 -10 -6.5 -16t-16.5 -6h-349v-255h327q11 0 17 -6t6 -17v-15q0 -10 -6.5 -16t-16.5 -6h-327v-265h357q11 0 17 -6t6 -17v-15q0 -10 -6.5 -16t-16.5 -6h-398q-10 0 -16 6z" />
    <glyph glyph-name="F" unicode="F" horiz-adv-x="570" 
d="M100 6q-6 6 -6 16v655q0 10 6 16.5t16 6.5h386q11 0 17 -6t6 -17v-15q0 -10 -6.5 -16t-16.5 -6h-345v-269h325q11 0 17 -6t6 -17v-15q0 -10 -6.5 -16t-16.5 -6h-325v-289q0 -10 -6.5 -16t-16.5 -6h-18q-10 0 -16 6z" />
    <glyph glyph-name="G" unicode="G" horiz-adv-x="664" 
d="M140 62q-69 72 -73 193q-1 30 -1 95t1 95q4 121 73 193t194 72q85 0 143 -32t86.5 -75.5t30.5 -77.5v-2q0 -8 -6 -13t-15 -5h-22q-9 0 -13 4t-8 16q-17 53 -65.5 89t-130.5 36q-93 0 -146.5 -51t-57.5 -159q-1 -30 -1 -90t1 -90q4 -108 57.5 -159t146.5 -51t150 53
t57 157v51h-174q-10 0 -16 6.5t-6 16.5v14q0 10 6 16.5t16 6.5h214q11 0 17 -6t6 -17v-88q0 -80 -32 -141t-93 -95t-145 -34q-125 0 -194 72z" />
    <glyph glyph-name="H" unicode="H" horiz-adv-x="700" 
d="M100 6q-6 6 -6 16v655q0 10 6 16.5t16 6.5h18q11 0 17 -6t6 -17v-292h386v292q0 10 6 16.5t16 6.5h18q11 0 17 -6t6 -17v-655q0 -10 -6.5 -16t-16.5 -6h-18q-10 0 -16 6t-6 16v303h-386v-303q0 -10 -6.5 -16t-16.5 -6h-18q-10 0 -16 6z" />
    <glyph glyph-name="I" unicode="I" horiz-adv-x="251" 
d="M100 6q-6 6 -6 16v656q0 10 6 16t16 6h19q10 0 16 -6t6 -16v-656q0 -10 -6 -16t-16 -6h-19q-10 0 -16 6z" />
    <glyph glyph-name="J" unicode="J" horiz-adv-x="618" 
d="M116.5 41.5q-67.5 51.5 -71.5 152.5q0 10 5.5 16t15.5 6h20q10 0 15.5 -6t6.5 -15q6 -74 55.5 -109.5t124.5 -35.5q86 0 132.5 56.5t46.5 149.5v384h-369q-10 0 -16 6t-6 16v16q0 10 6 16t16 6h409q11 0 17 -6t6 -17v-422q0 -120 -63.5 -192.5t-178.5 -72.5
q-104 0 -171.5 51.5z" />
    <glyph glyph-name="K" unicode="K" horiz-adv-x="575" 
d="M100 6q-6 6 -6 16v655q0 10 6 16.5t16 6.5h18q11 0 17 -6t6 -17v-260l303 268q8 6 16.5 10.5t21.5 4.5h16q8 0 14 -6t6 -14t-5 -13l-339 -302l360 -331q6 -6 6 -14t-6 -14t-14 -6h-17q-13 0 -21.5 4.5t-16.5 10.5l-324 296v-289q0 -10 -6.5 -16t-16.5 -6h-18q-10 0 -16 6
z" />
    <glyph glyph-name="L" unicode="L" horiz-adv-x="548" 
d="M100 6q-6 6 -6 16v656q0 10 6 16t16 6h19q10 0 16 -6t6 -16v-618h345q11 0 17 -6t6 -17v-15q0 -10 -6.5 -16t-16.5 -6h-386q-10 0 -16 6z" />
    <glyph glyph-name="M" unicode="M" horiz-adv-x="780" 
d="M100.5 6q-6.5 6 -6.5 16v655q0 11 6.5 17t16.5 6h25q15 0 21 -13l227 -442l228 442q7 13 21 13h24q11 0 17 -6t6 -17v-655q0 -10 -6.5 -16t-16.5 -6h-18q-10 0 -16 6t-6 16v542l-191 -376q-9 -20 -31 -20h-22q-22 0 -31 20l-191 376v-542q0 -10 -6 -16t-16 -6h-18
q-10 0 -16.5 6z" />
    <glyph glyph-name="N" unicode="N" horiz-adv-x="684" 
d="M100 6q-6 6 -6 16v655q0 10 6 16.5t16 6.5h21q13 0 21 -12l369 -564v553q0 10 6 16.5t16 6.5h18q11 0 17 -6t6 -17v-654q0 -10 -6 -16.5t-16 -6.5h-22q-13 0 -21 12l-368 562v-552q0 -10 -6.5 -16t-16.5 -6h-18q-10 0 -16 6z" />
    <glyph glyph-name="O" unicode="O" horiz-adv-x="662" 
d="M67 266q-1 30 -1 84t1 84q4 136 74 206t190 70t190 -70t74 -206q2 -60 2 -84t-2 -84q-7 -276 -264 -276t-264 276zM474.5 104.5q53.5 54.5 57.5 166.5q2 60 2 79t-2 79q-4 112 -58 166.5t-143 54.5t-143 -54.5t-58 -166.5q-1 -30 -1 -79t1 -79q4 -112 57.5 -166.5
t143.5 -54.5t143.5 54.5z" />
    <glyph glyph-name="P" unicode="P" horiz-adv-x="628" 
d="M100 6q-6 6 -6 16v655q0 10 6 16.5t16 6.5h243q107 0 168.5 -53.5t61.5 -153.5t-61.5 -153.5t-168.5 -53.5h-202v-264q0 -10 -6.5 -16t-16.5 -6h-18q-10 0 -16 6zM354 346q86 0 129 37.5t43 109.5t-43 109.5t-129 37.5h-197v-294h197z" />
    <glyph glyph-name="Q" unicode="Q" horiz-adv-x="662" 
d="M515 -42l-44 61q-60 -29 -140 -29q-257 0 -264 276q-1 30 -1 84t1 84q4 136 74 206t190 70t190 -70t74 -206q2 -60 2 -84t-2 -84q-5 -143 -73 -210l64 -90q3 -6 3 -11q0 -8 -6 -14t-14 -6h-22q-15 0 -32 23zM474.5 104.5q53.5 54.5 57.5 166.5q2 60 2 79t-2 79
q-4 112 -58 166.5t-143 54.5t-143 -54.5t-58 -166.5q-1 -30 -1 -79t1 -79q4 -112 57.5 -166.5t143.5 -54.5t143.5 54.5z" />
    <glyph glyph-name="R" unicode="R" horiz-adv-x="640" 
d="M100 6q-6 6 -6 16v655q0 10 6 16.5t16 6.5h233q108 0 169 -51t61 -151q0 -79 -39 -127.5t-112 -65.5l161 -274q3 -6 3 -11q0 -8 -6 -14t-14 -6h-12q-15 0 -22.5 6.5t-15.5 20.5l-159 269h-206v-274q0 -10 -6.5 -16t-16.5 -6h-18q-10 0 -16 6zM344 356q87 0 129.5 35.5
t42.5 106.5t-42.5 106.5t-129.5 35.5h-187v-284h187z" />
    <glyph glyph-name="S" unicode="S" horiz-adv-x="605" 
d="M168.5 15.5q-57.5 25.5 -88 66.5t-32.5 88q0 8 6 14t15 6h20q18 0 22 -20q7 -48 55 -84t138 -36q95 0 141.5 34.5t46.5 96.5q0 38 -22.5 62.5t-65.5 43t-130 46.5q-77 25 -120.5 49t-64.5 59t-21 89q0 51 27.5 92t79.5 64.5t124 23.5q74 0 127 -26.5t80 -67t29 -81.5
q0 -8 -5.5 -14t-15.5 -6h-20q-7 0 -14 4.5t-8 15.5q-6 50 -53.5 82.5t-119.5 32.5q-77 0 -122.5 -30t-45.5 -90q0 -39 20.5 -64.5t61.5 -44t121 -44.5q82 -26 128 -50t69.5 -58t23.5 -88q0 -90 -67 -140.5t-184 -50.5q-78 0 -135.5 25.5z" />
    <glyph glyph-name="T" unicode="T" horiz-adv-x="557" 
d="M253 6q-6 6 -6 16v618h-198q-10 0 -16 6t-6 16v15q0 10 6 16.5t16 6.5h458q11 0 17 -6t6 -17v-15q0 -10 -6.5 -16t-16.5 -6h-197v-618q0 -10 -6.5 -16t-16.5 -6h-18q-10 0 -16 6z" />
    <glyph glyph-name="U" unicode="U" horiz-adv-x="691" 
d="M154.5 59.5q-66.5 69.5 -66.5 211.5v406q0 10 6 16.5t16 6.5h18q11 0 17 -6t6 -17v-409q0 -110 51 -164t144 -54q92 0 143 54t51 164v409q0 11 6.5 17t16.5 6h18q10 0 16 -6.5t6 -16.5v-406q0 -143 -66 -212t-191 -69t-191.5 69.5z" />
    <glyph glyph-name="V" unicode="V" horiz-adv-x="638" 
d="M271 24l-232 645l-2 11q0 8 6 14t14 6h21q9 0 14.5 -5t7.5 -10l219 -612l219 612q2 5 7.5 10t14.5 5h21q8 0 14 -6t6 -14l-2 -11l-232 -645q-9 -24 -34 -24h-28q-25 0 -34 24z" />
    <glyph glyph-name="W" unicode="W" horiz-adv-x="788" 
d="M196.5 5.5q-6.5 5.5 -9.5 18.5l-137 644l-2 12q0 8 6 14t14 6h21q19 0 22 -15l117 -570l124 407q8 23 31 23h22q23 0 31 -23l124 -407l117 570q3 15 22 15h21q8 0 14 -6t6 -14l-2 -12l-137 -644q-3 -13 -9.5 -18.5t-18.5 -5.5h-15q-23 0 -31 24l-133 422l-133 -422
q-7 -24 -31 -24h-15q-12 0 -18.5 5.5z" />
    <glyph glyph-name="X" unicode="X" horiz-adv-x="609" 
d="M36 6q-6 6 -6 14q0 7 4 13l233 323l-224 311q-4 6 -4 13q0 8 6 14t14 6h24q13 0 23 -15l201 -280l197 280q11 15 23 15h22q8 0 14 -6t6 -14q0 -7 -4 -13l-221 -313l232 -321q4 -6 4 -13q0 -8 -6 -14t-14 -6h-24q-12 0 -23 15l-209 289l-209 -289q-10 -15 -23 -15h-22
q-8 0 -14 6z" />
    <glyph glyph-name="Y" unicode="Y" horiz-adv-x="632" 
d="M290 6q-6 6 -6 16v245l-244 400q-4 8 -4 13q0 8 6 14t14 6h20q14 0 23 -15l217 -353l217 353q9 15 23 15h20q8 0 14 -6t6 -14q0 -5 -4 -13l-244 -400v-245q0 -10 -6.5 -16t-16.5 -6h-19q-10 0 -16 6z" />
    <glyph glyph-name="Z" unicode="Z" horiz-adv-x="579" 
d="M48 6.5q-6 6.5 -6 16.5v20q0 17 7 27t8 11l394 559h-378q-10 0 -16 6t-6 16v15q0 10 6 16.5t16 6.5h431q11 0 17 -6t6 -17v-20q0 -11 -3.5 -18.5t-9.5 -17.5l-392 -561h392q11 0 17 -6t6 -17v-15q0 -10 -6.5 -16t-16.5 -6h-450q-10 0 -16 6.5z" />
    <glyph glyph-name="bracketleft" unicode="[" horiz-adv-x="301" 
d="M84 -153q-6 6 -6 16v891q0 10 6 16t16 6h151q10 0 16 -6t6 -16v-14q0 -10 -6 -16t-16 -6h-112v-819h112q10 0 16 -6t6 -16v-14q0 -10 -6 -16t-16 -6h-151q-10 0 -16 6z" />
    <glyph glyph-name="backslash" unicode="\" horiz-adv-x="459" 
d="M380.5 -79q-5.5 5 -7.5 10l-344 823q-3 8 -3 12q0 8 6 14t14 6h17q9 0 14.5 -5t7.5 -10l344 -823q3 -8 3 -12q0 -8 -6 -14t-14 -6h-17q-9 0 -14.5 5z" />
    <glyph glyph-name="bracketright" unicode="]" horiz-adv-x="301" 
d="M34 -153q-6 6 -6 16v14q0 10 6 16t16 6h112v819h-112q-10 0 -16 6t-6 16v14q0 10 6 16t16 6h151q10 0 16 -6t6 -16v-891q0 -10 -6 -16t-16 -6h-151q-10 0 -16 6z" />
    <glyph glyph-name="asciicircum" unicode="^" horiz-adv-x="418" 
d="M73 586q0 8 12 20l87 85q9 9 16 11.5t16 2.5h10q10 0 16.5 -2.5t15.5 -11.5l87 -85q12 -12 12 -20q0 -11 -14 -11h-17q-7 0 -14 2t-11 5l-80 60l-80 -60q-4 -3 -11 -5t-14 -2h-17q-14 0 -14 11z" />
    <glyph glyph-name="underscore" unicode="_" horiz-adv-x="753" 
d="M73 -22q-6 6 -6 16v14q0 10 6 16t16 6h575q10 0 16 -6t6 -16v-14q0 -10 -6 -16t-16 -6h-575q-10 0 -16 6z" />
    <glyph glyph-name="grave" unicode="`" horiz-adv-x="311" 
d="M198 597q-6 2 -14 8l-109 89q-5 5 -5 12q0 19 19 19h41q14 0 21 -3.5t16 -14.5l69 -83q5 -5 5 -13q0 -16 -16 -16h-10q-11 0 -17 2z" />
    <glyph glyph-name="a" unicode="a" horiz-adv-x="536" 
d="M132 10q-41 20 -65.5 54t-24.5 75q0 66 53.5 108t144.5 54l158 22v35q0 55 -33.5 84.5t-102.5 29.5q-51 0 -83.5 -20t-41.5 -48q-4 -12 -9.5 -16.5t-14.5 -4.5h-14q-9 0 -15.5 6.5t-6.5 15.5q0 22 20 51.5t62 51.5t103 22q107 0 152 -51t45 -124v-333q0 -10 -6 -16
t-16 -6h-17q-10 0 -16 6t-6 16v47q-22 -33 -64.5 -56t-112.5 -23q-48 0 -89 20zM351 96q47 48 47 138v34l-129 -18q-82 -11 -124 -38t-42 -68q0 -46 38.5 -71t89.5 -25q73 0 120 48z" />
    <glyph glyph-name="b" unicode="b" horiz-adv-x="580" 
d="M143 69v-47q0 -10 -6 -16t-16 -6h-17q-10 0 -16 6t-6 16v666q0 10 6 16t16 6h17q10 0 16 -6t6 -16v-237q59 79 168 79q108 0 159.5 -70.5t54.5 -171.5q1 -10 1 -28t-1 -28q-3 -101 -54.5 -171.5t-159.5 -70.5q-110 0 -168 79zM423.5 99.5q37.5 51.5 40.5 132.5q1 10 1 28
q0 93 -36 152.5t-124 59.5q-53 0 -89 -25t-54 -63.5t-19 -81.5l-1 -39l1 -39q3 -71 43 -123.5t119 -52.5q81 0 118.5 51.5z" />
    <glyph glyph-name="c" unicode="c" horiz-adv-x="536" 
d="M117 50.5q-57 60.5 -60 169.5l-1 40l1 40q3 109 60 169.5t161 60.5q66 0 112.5 -23.5t69.5 -60t25 -75.5q1 -9 -6 -15.5t-16 -6.5h-14q-10 0 -14.5 4.5t-9.5 16.5q-20 55 -56 78.5t-91 23.5q-72 0 -114.5 -43.5t-45.5 -133.5l-1 -35l1 -35q3 -90 45.5 -133.5t114.5 -43.5
q55 0 91 23.5t56 78.5q5 12 9.5 16.5t14.5 4.5h14q9 0 16 -6.5t6 -15.5q-2 -39 -25 -75.5t-69.5 -60t-112.5 -23.5q-104 0 -161 60.5z" />
    <glyph glyph-name="d" unicode="d" horiz-adv-x="580" 
d="M109.5 60.5q-51.5 70.5 -54.5 171.5l-1 28l1 28q3 101 54.5 171.5t159.5 70.5q109 0 168 -79v237q0 10 6 16t16 6h17q10 0 16 -6t6 -16v-666q0 -10 -6 -16t-16 -6h-17q-10 0 -16 6t-6 16v47q-58 -79 -168 -79q-108 0 -159.5 70.5zM394 100.5q40 52.5 43 123.5q1 10 1 39
t-1 39q-1 43 -19 81.5t-54 63.5t-89 25q-81 0 -118.5 -51.5t-40.5 -132.5l-1 -28q0 -93 36 -152.5t124 -59.5q79 0 119 52.5z" />
    <glyph glyph-name="e" unicode="e" horiz-adv-x="546" 
d="M121 52.5q-58 62.5 -66 167.5l-1 40l1 40q8 104 65.5 167t153.5 63q104 0 162.5 -69t58.5 -189v-15q0 -10 -6.5 -16t-16.5 -6h-356v-10q2 -47 21.5 -87.5t54.5 -65t82 -24.5q55 0 89.5 21.5t49.5 43.5q9 12 13.5 15t16.5 3h16q9 0 15 -5t6 -13q0 -21 -26.5 -50.5
t-73.5 -51t-106 -21.5q-95 0 -153 62.5zM434 291v4q0 77 -43.5 127t-116.5 50t-115.5 -50t-42.5 -127v-4h318z" />
    <glyph glyph-name="f" unicode="f" horiz-adv-x="360" 
d="M136 6q-6 6 -6 16v440h-89q-10 0 -16 6t-6 16v14q0 10 6 16t16 6h89v57q0 76 33 119.5t118 43.5h52q10 0 16 -6t6 -16v-14q0 -10 -6 -16t-16 -6h-52q-51 0 -70.5 -26.5t-19.5 -83.5v-52h132q10 0 16 -6t6 -16v-14q0 -10 -6 -16t-16 -6h-132v-440q0 -10 -6 -16t-16 -6h-17
q-10 0 -16 6z" />
    <glyph glyph-name="g" unicode="g" horiz-adv-x="581" 
d="M150 -193q-47 27 -65.5 61.5t-18.5 60.5q0 9 6.5 15t15.5 6h14q9 0 14.5 -4.5t9.5 -16.5q31 -91 144 -91q86 0 127 35.5t41 126.5v69q-58 -79 -168 -79q-108 0 -159.5 70.5t-54.5 171.5l-1 28l1 28q3 101 54.5 171.5t159.5 70.5q109 0 168 -79v46q0 10 6 16.5t16 6.5h16
q10 0 16.5 -6.5t6.5 -16.5v-487q0 -107 -50 -168.5t-174 -61.5q-78 0 -125 27zM395 100.5q40 52.5 43 123.5q1 10 1 36t-1 36q-3 71 -43 123.5t-119 52.5q-81 0 -118.5 -51.5t-40.5 -132.5l-1 -28l1 -28q3 -81 40.5 -132.5t118.5 -51.5q79 0 119 52.5z" />
    <glyph glyph-name="h" unicode="h" horiz-adv-x="591" 
d="M88 6q-6 6 -6 16v666q0 10 6 16t16 6h17q10 0 16 -6t6 -16v-237q30 39 68.5 59t99.5 20q98 0 151 -62.5t53 -161.5v-284q0 -10 -6 -16t-16 -6h-17q-10 0 -16 6t-6 16v279q0 81 -39.5 126t-113.5 45q-72 0 -115 -45.5t-43 -125.5v-279q0 -10 -6 -16t-16 -6h-17
q-10 0 -16 6z" />
    <glyph glyph-name="i" unicode="i" horiz-adv-x="223" 
d="M76 633q-6 6 -6 16v38q0 10 6 16.5t16 6.5h38q10 0 16.5 -6.5t6.5 -16.5v-38q0 -10 -6.5 -16t-16.5 -6h-38q-10 0 -16 6zM87 6q-6 6 -6 16v476q0 10 6 16t16 6h17q10 0 16 -6t6 -16v-476q0 -10 -6 -16t-16 -6h-17q-10 0 -16 6z" />
    <glyph glyph-name="j" unicode="j" horiz-adv-x="233" 
d="M85 633q-6 6 -6 16v38q0 10 6 16.5t16 6.5h38q10 0 16.5 -6.5t6.5 -16.5v-38q0 -10 -6.5 -16t-16.5 -6h-38q-10 0 -16 6zM-20 -184q-6 6 -6 16v14q0 10 6 16t16 6h4q55 0 72.5 28t17.5 82v520q0 10 6 16t16 6h17q10 0 16 -6t6 -16v-520q0 -79 -33 -123.5t-118 -44.5h-4
q-10 0 -16 6z" />
    <glyph glyph-name="k" unicode="k" horiz-adv-x="487" 
d="M88 6q-6 6 -6 16v666q0 10 6 16t16 6h17q10 0 16 -6t6 -16v-354l223 169q16 12 22 14.5t20 2.5h19q9 0 14.5 -5.5t5.5 -14.5q0 -11 -13 -20l-253 -192l278 -248q13 -12 13 -20q0 -9 -5.5 -14.5t-14.5 -5.5h-16q-15 0 -22 2.5t-20 14.5l-251 223v-218q0 -10 -6 -16t-16 -6
h-17q-10 0 -16 6z" />
    <glyph glyph-name="l" unicode="l" horiz-adv-x="225" 
d="M88 6q-6 6 -6 16v666q0 10 6 16t16 6h17q10 0 16 -6t6 -16v-666q0 -10 -6 -16t-16 -6h-17q-10 0 -16 6z" />
    <glyph glyph-name="m" unicode="m" horiz-adv-x="878" 
d="M87 6q-6 6 -6 16v476q0 10 6 16t16 6h17q10 0 16 -6t6 -16v-35q26 33 60.5 50t82.5 17q112 0 160 -94q24 43 68.5 68.5t101.5 25.5q83 0 135 -56.5t52 -160.5v-291q0 -10 -6 -16t-16 -6h-17q-10 0 -16 6t-6 16v281q0 91 -37.5 130t-98.5 39q-54 0 -93.5 -39.5
t-39.5 -129.5v-281q0 -10 -6 -16t-16 -6h-17q-10 0 -16 6t-6 16v281q0 90 -39 129.5t-97 39.5q-54 0 -93.5 -39.5t-39.5 -128.5v-282q0 -10 -6 -16t-16 -6h-17q-10 0 -16 6z" />
    <glyph glyph-name="n" unicode="n" horiz-adv-x="590" 
d="M87 6q-6 6 -6 16v476q0 10 6 16t16 6h17q10 0 16 -6t6 -16v-47q30 39 68.5 59t99.5 20q98 0 151 -62.5t53 -161.5v-284q0 -10 -6 -16t-16 -6h-17q-10 0 -16 6t-6 16v279q0 81 -39.5 126t-113.5 45q-72 0 -115 -45.5t-43 -125.5v-279q0 -10 -6 -16t-16 -6h-17q-10 0 -16 6
z" />
    <glyph glyph-name="o" unicode="o" horiz-adv-x="558" 
d="M117.5 53.5q-57.5 63.5 -60.5 164.5l-1 42l1 42q3 101 60.5 164.5t161.5 63.5t161.5 -63.5t60.5 -164.5q1 -10 1 -42t-1 -42q-3 -101 -60.5 -164.5t-161.5 -63.5t-161.5 63.5zM393.5 93.5q43.5 45.5 46.5 129.5q1 10 1 37t-1 37q-3 84 -46.5 129.5t-114.5 45.5
t-114.5 -45.5t-46.5 -129.5l-1 -37l1 -37q3 -84 46.5 -129.5t114.5 -45.5t114.5 45.5z" />
    <glyph glyph-name="p" unicode="p" horiz-adv-x="581" 
d="M88 -184q-6 6 -6 16v666q0 10 6 16t16 6h17q10 0 16 -6t6 -16v-47q58 79 168 79q108 0 159.5 -68.5t54.5 -168.5q1 -10 1 -33t-1 -33q-3 -100 -54.5 -168.5t-159.5 -68.5q-109 0 -168 79v-237q0 -10 -6 -16t-16 -6h-17q-10 0 -16 6zM423.5 99.5q37.5 51.5 40.5 132.5
q1 10 1 28q0 93 -36 152.5t-124 59.5q-79 0 -119 -52.5t-43 -123.5l-1 -39l1 -39q1 -43 19 -81.5t54 -63.5t89 -25q81 0 118.5 51.5z" />
    <glyph glyph-name="q" unicode="q" horiz-adv-x="581" 
d="M444 -184q-6 6 -6 16v237q-59 -79 -168 -79q-108 0 -159.5 68.5t-54.5 168.5l-1 33l1 33q3 100 54.5 168.5t159.5 68.5q110 0 168 -79v47q0 10 6 16t16 6h17q10 0 16 -6t6 -16v-666q0 -10 -6 -16t-16 -6h-17q-10 0 -16 6zM365 73q36 25 54 63.5t19 81.5q1 10 1 39t-1 39
q-3 71 -43 123.5t-119 52.5q-81 0 -118.5 -51.5t-40.5 -132.5l-1 -28q0 -93 36 -152.5t124 -59.5q53 0 89 25z" />
    <glyph glyph-name="r" unicode="r" horiz-adv-x="348" 
d="M87 6q-6 6 -6 16v475q0 10 6 16.5t16 6.5h16q10 0 16.5 -6.5t6.5 -16.5v-46q36 69 136 69h37q10 0 16 -6t6 -16v-14q0 -10 -6 -16t-16 -6h-43q-60 0 -95 -35t-35 -95v-310q0 -10 -6.5 -16t-16.5 -6h-16q-10 0 -16 6z" />
    <glyph glyph-name="s" unicode="s" horiz-adv-x="492" 
d="M136.5 12q-44.5 22 -67 50t-22.5 45q0 9 7 14.5t15 5.5h15q7 0 11.5 -2.5t10.5 -10.5q22 -31 53.5 -48.5t86.5 -17.5q62 0 100 23.5t38 67.5q0 27 -15.5 44t-50 29.5t-102.5 28.5q-89 20 -121.5 55t-32.5 89q0 37 20.5 70t61 54t97.5 21q60 0 101.5 -20.5t62 -47.5
t20.5 -44q0 -9 -6.5 -14.5t-15.5 -5.5h-15q-14 0 -22 13q-20 30 -45.5 45.5t-79.5 15.5q-58 0 -88 -24t-30 -63q0 -24 12 -40t45 -29.5t96 -27.5q93 -21 131 -56t38 -93q0 -41 -23 -75t-68 -54t-108 -20q-65 0 -109.5 22z" />
    <glyph glyph-name="t" unicode="t" horiz-adv-x="359" 
d="M151 44.5q-31 44.5 -31 122.5v295h-78q-10 0 -16 6t-6 16v14q0 10 6 16t16 6h78v168q0 10 6 16t16 6h17q10 0 16 -6t6 -16v-168h124q10 0 16 -6t6 -16v-14q0 -10 -6 -16t-16 -6h-124v-291q0 -56 18.5 -84.5t61.5 -28.5h54q10 0 16 -6t6 -16v-14q0 -10 -6 -16t-16 -6h-59
q-74 0 -105 44.5z" />
    <glyph glyph-name="u" unicode="u" horiz-adv-x="585" 
d="M127 52q-51 62 -51 162v284q0 10 6 16t16 6h17q10 0 16 -6t6 -16v-279q0 -171 149 -171q72 0 114.5 45.5t42.5 125.5v279q0 10 6 16t16 6h17q10 0 16 -6t6 -16v-476q0 -10 -6 -16t-16 -6h-17q-10 0 -16 6t-6 16v47q-30 -39 -68.5 -59t-98.5 -20q-98 0 -149 62z" />
    <glyph glyph-name="v" unicode="v" horiz-adv-x="536" 
d="M222 25l-184 464l-2 11q0 8 6 14t14 6h21q9 0 14.5 -5t7.5 -10l169 -432l169 432q2 5 7.5 10t14.5 5h21q8 0 14 -6t6 -14l-2 -11l-184 -464q-10 -25 -38 -25h-16q-28 0 -38 25z" />
    <glyph glyph-name="w" unicode="w" horiz-adv-x="786" 
d="M196 6q-7 6 -12 19l-141 464l-2 11q0 8 6 14t14 6h19q9 0 15 -5t7 -10l123 -416l131 411q2 8 9 14t18 6h20q11 0 18 -6t9 -14l131 -411l123 416q1 5 7 10t15 5h19q8 0 14 -6t6 -14l-2 -11l-141 -464q-5 -13 -12 -19t-20 -6h-17q-27 0 -34 25l-126 394l-126 -394
q-7 -25 -34 -25h-17q-13 0 -20 6z" />
    <glyph glyph-name="x" unicode="x" horiz-adv-x="518" 
d="M41 6q-6 6 -6 14q0 10 8 20l176 226l-167 214q-8 10 -8 20q0 8 6 14t14 6h21q9 0 13.5 -3.5t11.5 -11.5l150 -193l150 192q1 1 5 6t9 7.5t11 2.5h20q8 0 14 -6t6 -14q0 -10 -8 -20l-169 -217l176 -223q8 -10 8 -20q0 -8 -6 -14t-14 -6h-21q-14 0 -25 15l-158 202
l-158 -202q-7 -8 -11.5 -11.5t-13.5 -3.5h-20q-8 0 -14 6z" />
    <glyph glyph-name="y" unicode="y" horiz-adv-x="532" 
d="M155 -184q-6 6 -6 14q0 5 6 20l77 180l-191 450q-6 15 -6 20q0 8 6 14t14 6h21q16 0 23 -15l168 -396l172 396q8 15 23 15h20q8 0 14 -6t6 -14q0 -5 -6 -20l-284 -655q-7 -15 -23 -15h-20q-8 0 -14 6z" />
    <glyph glyph-name="z" unicode="z" horiz-adv-x="490" 
d="M48 6q-6 6 -6 16v17q0 11 14 31l294 392h-276q-10 0 -16 6t-6 16v14q0 10 6 16t16 6h336q10 0 16 -6t6 -16v-17q0 -11 -14 -31l-292 -392h304q10 0 16 -6t6 -16v-14q0 -10 -6 -16t-16 -6h-366q-10 0 -16 6z" />
    <glyph glyph-name="braceleft" unicode="{" horiz-adv-x="344" 
d="M178.5 -126q-36.5 33 -46.5 91.5t-10 165.5q0 54 -13 82.5t-43 49.5l-5 3q-14 9 -19 17t-5 20v12q0 12 5 20t19 17l6 4q29 21 42 49t13 82q0 106 10 165t46.5 91.5t111.5 32.5h5q10 0 16 -6t6 -16v-14q0 -10 -6 -16t-16 -6h-5q-50 0 -72.5 -25t-28.5 -74t-6 -153
q0 -58 -18 -96t-57 -61q39 -23 57 -61t18 -96q0 -104 6 -153.5t28.5 -74.5t72.5 -25h5q10 0 16 -6t6 -16v-14q0 -10 -6 -16t-16 -6h-5q-75 0 -111.5 33z" />
    <glyph glyph-name="bar" unicode="|" horiz-adv-x="219" 
d="M85 -202q-6 6 -6 16v1060q0 10 6 16t16 6h17q10 0 16 -6t6 -16v-1060q0 -10 -6 -16t-16 -6h-17q-10 0 -16 6z" />
    <glyph glyph-name="braceright" unicode="}" horiz-adv-x="344" 
d="M165.5 743q36.5 -33 46.5 -91.5t10 -165.5q0 -54 13 -82.5t43 -49.5l5 -3q14 -9 19 -17t5 -20v-12q0 -12 -5 -20t-19 -17l-6 -4q-29 -21 -42 -49t-13 -82q0 -106 -10 -165t-46.5 -91.5t-111.5 -32.5h-5q-10 0 -16 6t-6 16v14q0 10 6 16t16 6h5q50 0 72.5 25t28.5 74
t6 153q0 58 18 96t57 61q-39 23 -57 61t-18 96q0 104 -6 153.5t-28.5 74.5t-72.5 25h-5q-10 0 -16 6t-6 16v14q0 10 6 16t16 6h5q75 0 111.5 -33z" />
    <glyph glyph-name="asciitilde" unicode="~" horiz-adv-x="563" 
d="M82 257q-5 5 -5 12v23q0 12 16 25t41.5 21.5t52.5 8.5q30 0 53 -5t50 -14q28 -8 46.5 -12t41.5 -4q21 0 36.5 6.5t26.5 14t16 10.5q10 4 13 4q8 0 12.5 -4.5t4.5 -12.5v-23q0 -12 -16 -25t-41.5 -21.5t-52.5 -8.5t-48.5 4.5t-50.5 13.5q-26 8 -46.5 12.5t-45.5 4.5
q-21 0 -36.5 -6.5t-26.5 -14t-16 -10.5q-10 -4 -13 -4q-7 0 -12 5z" />
    <glyph glyph-name="uni00A0" unicode="&#xa0;" horiz-adv-x="258" 
 />
    <glyph glyph-name="exclamdown" unicode="&#xa1;" horiz-adv-x="217" 
d="M144 513q6 -6 6 -16v-38q0 -10 -6 -16.5t-16 -6.5h-38q-10 0 -16.5 6.5t-6.5 16.5v38q0 10 6.5 16t16.5 6h38q10 0 16 -6zM133 370q6 -6 6 -16v-513q0 -10 -6 -16t-16 -6h-17q-10 0 -16 6t-6 16v513q0 10 6 16t16 6h17q10 0 16 -6z" />
    <glyph glyph-name="cent" unicode="&#xa2;" horiz-adv-x="544" 
d="M250 -94q-6 6 -6 16v70q-85 9 -133 69t-50 159l-1 40l1 40q2 99 50 159t133 69v60q0 10 6 16t16 6h16q10 0 16 -6t6 -16v-59q63 -6 104.5 -33.5t60.5 -62t20 -62.5q1 -9 -6 -15.5t-16 -6.5h-14q-10 0 -14.5 4.5t-9.5 16.5q-38 102 -155 102q-65 0 -107 -44t-45 -133
l-1 -35l1 -35q3 -89 45 -133t107 -44q117 0 155 102q5 12 9.5 16.5t14.5 4.5h14q9 0 16 -6.5t6 -15.5q-1 -29 -20 -63.5t-60.5 -61.5t-104.5 -33v-69q0 -10 -6 -16t-16 -6h-16q-10 0 -16 6z" />
    <glyph glyph-name="sterling" unicode="&#xa3;" horiz-adv-x="658" 
d="M370 12q-32 17 -71 50q-29 26 -51 38.5t-48 12.5q-43 0 -60.5 -23t-24.5 -69q-3 -21 -21 -21h-23q-9 0 -14 5.5t-5 13.5q2 68 34.5 105.5t83.5 46.5q-1 29 -13 104l-6 40h-77q-10 0 -16 6t-6 16v16q0 10 6 16t16 6h70q-3 38 -3 81q0 70 24.5 128t75 92.5t125.5 34.5
q72 0 122.5 -30t76.5 -79t28 -107q0 -9 -6 -15.5t-15 -6.5h-18q-8 0 -15 6t-8 15q-27 157 -166 157q-78 0 -119.5 -53.5t-41.5 -142.5q0 -47 4 -80h211q10 0 16 -6t6 -16v-16q0 -10 -6 -16t-16 -6h-202l3 -23q12 -80 14 -123q32 -6 55.5 -20.5t56.5 -41.5q32 -27 53.5 -39.5
t49.5 -12.5q43 0 61 24t25 70q1 6 6.5 12.5t12.5 6.5h25q9 0 14 -5.5t5 -13.5q-1 -73 -42 -113.5t-107 -40.5q-47 0 -79 17z" />
    <glyph glyph-name="currency" unicode="&#xa4;" horiz-adv-x="578" 
d="M78 101q-7 9 -7 16q0 8 7 15l43 42q-42 54 -42 126t42 126l-43 42q-7 9 -7 16q0 8 7 15l12 12q7 7 16 7t15 -7l42 -43q57 42 126 42t126 -42l42 43q7 7 16 7t15 -7l12 -12q7 -6 7 -15t-7 -16l-43 -42q42 -57 42 -126t-42 -126l43 -42q7 -6 7 -15t-7 -16l-12 -12
q-7 -7 -15 -7q-7 0 -16 7l-42 43q-54 -42 -126 -42t-126 42l-42 -43q-7 -7 -15 -7q-7 0 -16 7zM364.5 170q34.5 20 54.5 54.5t20 75.5t-20 75.5t-54.5 54.5t-75.5 20t-75.5 -20t-54.5 -54.5t-20 -75.5t20 -75.5t54.5 -54.5t75.5 -20t75.5 20z" />
    <glyph glyph-name="yen" unicode="&#xa5;" horiz-adv-x="586" 
d="M546 667l-216 -364h143q10 0 16 -6t6 -16v-16q0 -10 -6 -16t-16 -6h-148v-60h148q10 0 16 -6t6 -16v-16q0 -10 -6 -16t-16 -6h-148v-101q0 -10 -6.5 -16t-16.5 -6h-19q-10 0 -16 6t-6 16v101h-148q-10 0 -16 6t-6 16v16q0 10 6 16t16 6h148v60h-148q-10 0 -16 6t-6 16v16
q0 10 6 16t16 6h143l-216 364q-4 8 -4 13q0 8 6 14t14 6h22q14 0 23 -15l192 -324l192 324q9 15 23 15h22q8 0 14 -6t6 -14q0 -5 -4 -13z" />
    <glyph glyph-name="brokenbar" unicode="&#xa6;" horiz-adv-x="225" 
d="M88 481q-6 6 -6 16v310q0 10 6 16t16 6h17q10 0 16 -6t6 -16v-310q0 -10 -6 -16t-16 -6h-17q-10 0 -16 6zM88 6q-6 6 -6 16v310q0 10 6 16t16 6h17q10 0 16 -6t6 -16v-310q0 -10 -6 -16t-16 -6h-17q-10 0 -16 6z" />
    <glyph glyph-name="section" unicode="&#xa7;" horiz-adv-x="553" 
d="M164.5 -119.5q-43.5 20.5 -65 51.5t-23.5 62v2q0 8 6 13t15 5h18q9 0 14.5 -4.5t9.5 -15.5q12 -34 40.5 -55t92.5 -21q60 0 91 29t31 75q0 31 -11.5 49t-39.5 30.5t-87 30.5q-78 24 -123 49.5t-66 60.5t-21 88q0 72 78 130q-26 31 -26 88q0 41 21 78t62.5 60.5t99.5 23.5
q64 0 107.5 -20.5t65 -51.5t23.5 -62v-2q0 -8 -6 -13t-15 -5h-18q-9 0 -14.5 4.5t-9.5 15.5q-12 34 -40.5 55t-92.5 21q-60 0 -91 -29t-31 -75q0 -31 11.5 -49t39.5 -30.5t87 -30.5q78 -24 123 -49.5t66 -60.5t21 -88q0 -72 -78 -130q26 -31 26 -88q0 -41 -21 -78
t-62.5 -60.5t-99.5 -23.5q-64 0 -107.5 20.5zM430.5 190q15.5 21 15.5 51q0 32 -13.5 55.5t-51 44.5t-109.5 42q-64 19 -101 40q-33 -22 -48.5 -43t-15.5 -51q0 -32 13.5 -55.5t51 -44.5t109.5 -42q64 -19 101 -40q33 22 48.5 43z" />
    <glyph glyph-name="dieresis" unicode="&#xa8;" horiz-adv-x="376" 
d="M76 633q-6 6 -6 16v38q0 10 6 16.5t16 6.5h38q10 0 16.5 -6.5t6.5 -16.5v-38q0 -10 -6.5 -16t-16.5 -6h-38q-10 0 -16 6zM229 633q-6 6 -6 16v38q0 10 6 16.5t16 6.5h38q10 0 16.5 -6.5t6.5 -16.5v-38q0 -10 -6.5 -16t-16.5 -6h-38q-10 0 -16 6z" />
    <glyph glyph-name="copyright" unicode="&#xa9;" horiz-adv-x="834" 
d="M236.5 38.5q-82.5 48.5 -131 131t-48.5 180.5t48.5 180.5t131 131t180.5 48.5t180.5 -48.5t131 -131t48.5 -180.5t-48.5 -180.5t-131 -131t-180.5 -48.5t-180.5 48.5zM567 86.5q69 41.5 109.5 111.5t40.5 152t-40.5 152t-109.5 111.5t-150 41.5t-150 -41.5t-109.5 -111.5
t-40.5 -152t40.5 -152t109.5 -111.5t150 -41.5t150 41.5zM300.5 203.5q-43.5 45.5 -45.5 113.5l-1 34l1 34q2 68 45.5 113.5t116.5 45.5q50 0 86 -16.5t54 -41t18 -49.5q0 -10 -6 -16t-16 -6h-17q-9 0 -14 5t-9 14q-10 25 -32.5 38.5t-63.5 13.5q-54 0 -76.5 -30.5
t-24.5 -70.5l-1 -34l1 -34q2 -40 24.5 -70.5t76.5 -30.5q41 0 63.5 13.5t32.5 38.5q4 9 9 14t14 5h17q10 0 16 -6t6 -16q0 -25 -18 -49.5t-54 -41t-86 -16.5q-73 0 -116.5 45.5z" />
    <glyph glyph-name="ordfeminine" unicode="&#xaa;" horiz-adv-x="367" 
d="M83.5 451q-25.5 22 -25.5 54q0 39 30 64t83 33l63 9q0 11 -9.5 23.5t-40.5 12.5q-17 0 -27.5 -3.5t-20.5 -9.5q-12 -7 -22 -7h-17q-22 0 -22 15q0 10 15 25.5t40.5 26.5t56.5 11q49 0 78.5 -30t29.5 -77v-142q0 -10 -6 -16t-16 -6h-17q-10 0 -16 6t-6 16v7
q-8 -14 -32 -24t-51 -10q-42 0 -67.5 22zM216 504.5q18 21.5 18 54.5l-47 -7q-39 -6 -53 -17t-14 -28q0 -11 11.5 -17.5t28.5 -6.5q38 0 56 21.5z" />
    <glyph glyph-name="guillemotleft" unicode="&#xab;" horiz-adv-x="603" 
d="M252 104l-188 182q-15 15 -17 35v16q2 20 17 35l188 182q14 12 24 12q9 0 14.5 -5.5t5.5 -14.5v-17q0 -11 -4 -18.5t-14 -17.5l-169 -164l169 -164q10 -10 14 -17.5t4 -18.5v-17q0 -9 -5.5 -14.5t-14.5 -5.5q-10 0 -24 12zM501 104l-188 182q-15 15 -17 35v16q2 20 17 35
l188 182q14 12 24 12q9 0 14.5 -5.5t5.5 -14.5v-17q0 -11 -4 -18.5t-14 -17.5l-169 -164l169 -164q10 -10 14 -17.5t4 -18.5v-17q0 -9 -5.5 -14.5t-14.5 -5.5q-10 0 -24 12z" />
    <glyph glyph-name="logicalnot" unicode="&#xac;" horiz-adv-x="581" 
d="M449 176q-6 6 -6 16v100h-345q-10 0 -16 6t-6 16v14q0 10 6 16t16 6h385q10 0 16 -6t6 -16v-136q0 -10 -6 -16t-16 -6h-18q-10 0 -16 6z" />
    <glyph glyph-name="uni00AD" unicode="&#xad;" horiz-adv-x="250" 
 />
    <glyph glyph-name="registered" unicode="&#xae;" horiz-adv-x="834" 
d="M236.5 38.5q-82.5 48.5 -131 131t-48.5 180.5t48.5 180.5t131 131t180.5 48.5t180.5 -48.5t131 -131t48.5 -180.5t-48.5 -180.5t-131 -131t-180.5 -48.5t-180.5 48.5zM567 86.5q69 41.5 109.5 111.5t40.5 152t-40.5 152t-109.5 111.5t-150 41.5t-150 -41.5t-109.5 -111.5
t-40.5 -152t40.5 -152t109.5 -111.5t150 -41.5t150 41.5zM288 174q-6 6 -6 16v322q0 10 6 16t16 6h128q62 0 99 -27.5t37 -88.5q0 -39 -19 -66t-53 -39l69 -109q4 -6 4 -14q0 -9 -5.5 -15.5t-16.5 -6.5h-14q-18 0 -29 19l-72 115h-89v-112q0 -10 -6 -16t-16 -6h-17
q-10 0 -16 6zM430 360q77 0 77 58t-77 58h-87v-116h87z" />
    <glyph glyph-name="macron" unicode="&#xaf;" horiz-adv-x="383" 
d="M76 628q-6 6 -6 16v14q0 10 6 16t16 6h199q10 0 16 -6t6 -16v-14q0 -10 -6 -16t-16 -6h-199q-10 0 -16 6z" />
    <glyph glyph-name="degree" unicode="&#xb0;" horiz-adv-x="378" 
d="M92.5 485.5q-39.5 37.5 -39.5 93.5t39.5 93.5t96.5 37.5t96.5 -37.5t39.5 -93.5t-39.5 -93.5t-96.5 -37.5t-96.5 37.5zM244 524q21 21 21 55t-21 55t-55 21t-55 -21t-21 -55t21 -55t55 -21t55 21z" />
    <glyph glyph-name="plusminus" unicode="&#xb1;" horiz-adv-x="556" 
d="M254 199q-6 6 -6 16v158h-157q-10 0 -16 6t-6 16v14q0 10 6 16t16 6h157v154q0 10 6 16t16 6h16q10 0 16 -6t6 -16v-154h157q10 0 16 -6t6 -16v-14q0 -10 -6 -16t-16 -6h-157v-158q0 -10 -6 -16t-16 -6h-16q-10 0 -16 6zM85 6q-6 6 -6 16v14q0 10 6 16t16 6h354
q10 0 16 -6t6 -16v-14q0 -10 -6 -16t-16 -6h-354q-10 0 -16 6z" />
    <glyph glyph-name="uni00B2" unicode="&#xb2;" horiz-adv-x="335" 
d="M37 356q-6 6 -6 16v17q0 8 5 15.5t19 17.5l49 35q55 40 78.5 58.5t36 37t12.5 41.5q0 25 -19 40.5t-46 15.5q-31 0 -44.5 -11t-18 -20.5t-5.5 -11.5q-6 -11 -11 -14.5t-13 -3.5h-15q-18 0 -18 17q0 23 17 46.5t46 38t62 14.5q55 0 89 -33t34 -78q0 -36 -15.5 -63.5
t-47 -53.5t-96.5 -71h152q10 0 16 -6t6 -16v-12q0 -10 -6 -16t-16 -6h-229q-10 0 -16 6z" />
    <glyph glyph-name="uni00B3" unicode="&#xb3;" horiz-adv-x="336" 
d="M66 368q-35 23 -37 57v2q0 7 6 12t11 5h20q12 0 22 -14q11 -15 24.5 -22t50.5 -7q34 0 56 13.5t22 36.5q0 27 -18.5 38.5t-53.5 11.5h-40q-10 0 -16 6t-6 16v17q0 11 12 23l89 81h-142q-10 0 -16 6t-6 16v12q0 10 6 16t16 6h198q10 0 16 -6t6 -16v-12q0 -12 -3 -20.5
t-13 -18.5l-76 -70q54 -3 79.5 -32t25.5 -74q0 -50 -35.5 -78t-100.5 -28q-62 0 -97 23z" />
    <glyph glyph-name="acute" unicode="&#xb4;" horiz-adv-x="311" 
d="M70 611q0 8 5 13l69 83q9 11 16 14.5t21 3.5h41q19 0 19 -19q0 -7 -5 -12l-109 -89q-8 -6 -14 -8t-17 -2h-10q-16 0 -16 16z" />
    <glyph glyph-name="uni00B5" unicode="&#xb5;" horiz-adv-x="586" 
d="M82 -194q-6 6 -6 16v676q0 10 6 16t16 6h17q10 0 16 -6t6 -16v-279q0 -51 22.5 -90t59 -60t74.5 -21t74.5 21t59 60t22.5 90v279q0 10 6 16t16 6h17q10 0 16 -6t6 -16v-476q0 -10 -6 -16t-16 -6h-17q-10 0 -16 6t-6 16v47q-29 -38 -65.5 -58.5t-90.5 -20.5t-90.5 20.5
t-65.5 58.5v-247q0 -10 -6 -16t-16 -6h-17q-10 0 -16 6z" />
    <glyph glyph-name="paragraph" unicode="&#xb6;" horiz-adv-x="491" 
d="M215 -94q-6 6 -6 16v424q-48 0 -88.5 24t-64.5 64.5t-24 88.5t24 88.5t64.5 64.5t88.5 24h179q10 0 16 -6t6 -16v-756q0 -10 -6 -16t-16 -6h-17q-10 0 -16 6t-6 16v720h-79v-720q0 -10 -6 -16t-16 -6h-17q-10 0 -16 6z" />
    <glyph glyph-name="periodcentered" unicode="&#xb7;" horiz-adv-x="330" 
d="M94.5 229.5q-29.5 29.5 -29.5 70.5t29.5 70.5t70.5 29.5t70.5 -29.5t29.5 -70.5t-29.5 -70.5t-70.5 -29.5t-70.5 29.5z" />
    <glyph glyph-name="cedilla" unicode="&#xb8;" horiz-adv-x="320" 
d="M114 -213q-20 7 -31.5 17t-11.5 19q0 5 3 8l14 13q4 4 9 4q4 0 14 -6.5t19.5 -11t25.5 -4.5q18 0 30.5 11t12.5 29q0 17 -12.5 27.5t-30.5 10.5q-14 0 -28.5 -5t-18.5 -5q-8 0 -13 6l-16 17q-3 3 -3 8t3.5 12t4.5 10l35 80h58l-42 -85q13 8 38 8q33 0 54.5 -23t21.5 -59
q0 -38 -24 -63t-68 -25q-24 0 -44 7z" />
    <glyph glyph-name="uni00B9" unicode="&#xb9;" horiz-adv-x="231" 
d="M130 356q-6 6 -6 16v251l-63 -47q-5 -4 -13 -4q-10 0 -18 9l-7 10q-5 7 -5 14q0 10 9 17l96 71q10 7 23 7h14q10 0 16 -6t6 -16v-306q0 -10 -6 -16t-16 -6h-14q-10 0 -16 6z" />
    <glyph glyph-name="ordmasculine" unicode="&#xba;" horiz-adv-x="361" 
d="M96 457q-32 28 -35 83l-1 27l1 27q3 54 36.5 82.5t83.5 28.5t83.5 -28.5t36.5 -82.5q1 -5 1 -27t-1 -27q-3 -55 -35 -83t-85 -28t-85 28zM240 545q1 5 1 22t-1 22q-2 27 -17 42.5t-42 15.5t-42 -15.5t-17 -42.5l-1 -22l1 -22q3 -58 59 -58t59 58z" />
    <glyph glyph-name="guillemotright" unicode="&#xbb;" horiz-adv-x="603" 
d="M63.5 97.5q-5.5 5.5 -5.5 14.5v17q0 11 4 18.5t14 17.5l169 164l-169 164q-10 10 -14 17.5t-4 18.5v17q0 9 5.5 14.5t14.5 5.5q10 0 24 -12l188 -182q15 -15 17 -35v-16q-2 -20 -17 -35l-188 -182q-14 -12 -24 -12q-9 0 -14.5 5.5zM312.5 97.5q-5.5 5.5 -5.5 14.5v17
q0 11 4 18.5t14 17.5l169 164l-169 164q-10 10 -14 17.5t-4 18.5v17q0 9 5.5 14.5t14.5 5.5q10 0 24 -12l188 -182q15 -15 17 -35v-16q-2 -20 -17 -35l-188 -182q-14 -12 -24 -12q-9 0 -14.5 5.5z" />
    <glyph glyph-name="onequarter" unicode="&#xbc;" horiz-adv-x="717" 
d="M130 356q-6 6 -6 16v251l-63 -47q-5 -4 -13 -4q-10 0 -18 9l-7 10q-5 7 -5 14q0 10 9 17l96 71q10 7 23 7h14q10 0 16 -6t6 -16v-306q0 -10 -6 -16t-16 -6h-14q-10 0 -16 6zM32.5 5.5q-5.5 5.5 -5.5 14.5q0 6 4 11l493 650q8 11 14.5 15t18.5 4h17q9 0 14.5 -5.5
t5.5 -14.5q0 -6 -4 -11l-493 -650q-8 -11 -14.5 -15t-18.5 -4h-17q-9 0 -14.5 5.5zM548 4q-6 6 -6 16v53h-147q-10 0 -16 6t-6 16v13q0 14 12 30l137 192q13 18 30 18h26q10 0 16 -6t6 -16v-197h35q10 0 16 -6t6 -16v-12q0 -10 -6 -16t-16 -6h-35v-53q0 -10 -6 -16t-16 -6
h-14q-10 0 -16 6zM448 129h94v135z" />
    <glyph glyph-name="onehalf" unicode="&#xbd;" horiz-adv-x="726" 
d="M130 356q-6 6 -6 16v251l-63 -47q-5 -4 -13 -4q-10 0 -18 9l-7 10q-5 7 -5 14q0 10 9 17l96 71q10 7 23 7h14q10 0 16 -6t6 -16v-306q0 -10 -6 -16t-16 -6h-14q-10 0 -16 6zM32.5 5.5q-5.5 5.5 -5.5 14.5q0 6 4 11l493 650q8 11 14.5 15t18.5 4h17q9 0 14.5 -5.5
t5.5 -14.5q0 -6 -4 -11l-493 -650q-8 -11 -14.5 -15t-18.5 -4h-17q-9 0 -14.5 5.5zM390 6q-6 6 -6 16v17q0 8 5 15.5t19 17.5l49 35q55 40 78.5 58.5t36 37t12.5 41.5q0 25 -19 40.5t-46 15.5q-31 0 -44.5 -11t-18 -20.5t-5.5 -11.5q-6 -11 -11 -14.5t-13 -3.5h-15
q-18 0 -18 17q0 23 17 46.5t46 38t62 14.5q55 0 89 -33t34 -78q0 -36 -15.5 -63.5t-47 -53.5t-96.5 -71h152q10 0 16 -6t6 -16v-12q0 -10 -6 -16t-16 -6h-229q-10 0 -16 6z" />
    <glyph glyph-name="threequarters" unicode="&#xbe;" horiz-adv-x="807" 
d="M66 368q-35 23 -37 57v2q0 7 6 12t11 5h20q12 0 22 -14q11 -15 24.5 -22t50.5 -7q34 0 56 13.5t22 36.5q0 27 -18.5 38.5t-53.5 11.5h-40q-10 0 -16 6t-6 16v17q0 11 12 23l89 81h-142q-10 0 -16 6t-6 16v12q0 10 6 16t16 6h198q10 0 16 -6t6 -16v-12q0 -12 -3 -20.5
t-13 -18.5l-76 -70q54 -3 79.5 -32t25.5 -74q0 -50 -35.5 -78t-100.5 -28q-62 0 -97 23zM137.5 5.5q-5.5 5.5 -5.5 14.5q0 6 4 11l493 650q8 11 14.5 15t18.5 4h17q9 0 14.5 -5.5t5.5 -14.5q0 -6 -4 -11l-493 -650q-8 -11 -14.5 -15t-18.5 -4h-17q-9 0 -14.5 5.5zM655 4
q-6 6 -6 16v53h-147q-10 0 -16 6t-6 16v13q0 14 12 30l137 192q13 18 30 18h26q10 0 16 -6t6 -16v-197h35q10 0 16 -6t6 -16v-12q0 -10 -6 -16t-16 -6h-35v-53q0 -10 -6 -16t-16 -6h-14q-10 0 -16 6zM555 129h94v135z" />
    <glyph glyph-name="questiondown" unicode="&#xbf;" horiz-adv-x="496" 
d="M281 514q6 -6 6 -16v-38q0 -10 -6 -16.5t-16 -6.5h-38q-10 0 -16.5 6.5t-6.5 16.5v38q0 10 6.5 16t16.5 6h38q10 0 16 -6zM269 371q6 -6 6 -16v-48q0 -41 -14 -74t-34 -57.5t-53 -58.5q-41 -43 -59.5 -70.5t-18.5 -62.5q0 -53 45 -84.5t104 -31.5q63 0 105 33t54 106
q4 22 24 22h16q9 0 15 -5.5t6 -14.5q-1 -55 -30 -100.5t-78.5 -72t-111.5 -26.5q-67 0 -114.5 24t-71 64t-23.5 86q0 52 24 90t71 87q42 44 62.5 75t20.5 71v48q0 10 6 16t16 6h17q10 0 16 -6z" />
    <glyph glyph-name="Agrave" unicode="&#xc0;" horiz-adv-x="650" 
d="M30 6q-6 6 -6 14l2 11l253 649q8 20 29 20h34q21 0 29 -20l253 -649l2 -11q0 -8 -6 -14t-14 -6h-20q-9 0 -14.5 5t-7.5 10l-62 160h-354l-62 -160q-2 -5 -7.5 -10t-14.5 -5h-20q-8 0 -14 6zM172 235h306l-153 394zM315 752q-6 2 -14 8l-109 89q-5 5 -5 12q0 19 19 19h46
q14 0 21 -3.5t16 -14.5l69 -83q5 -5 5 -13q0 -16 -16 -16h-15q-11 0 -17 2z" />
    <glyph glyph-name="Aacute" unicode="&#xc1;" horiz-adv-x="650" 
d="M30 6q-6 6 -6 14l2 11l253 649q8 20 29 20h34q21 0 29 -20l253 -649l2 -11q0 -8 -6 -14t-14 -6h-20q-9 0 -14.5 5t-7.5 10l-62 160h-354l-62 -160q-2 -5 -7.5 -10t-14.5 -5h-20q-8 0 -14 6zM172 235h306l-153 394zM297 766q0 8 5 13l69 83q9 11 16 14.5t21 3.5h46
q19 0 19 -19q0 -7 -5 -12l-109 -89q-8 -6 -14 -8t-17 -2h-15q-16 0 -16 16z" />
    <glyph glyph-name="Acircumflex" unicode="&#xc2;" horiz-adv-x="650" 
d="M30 6q-6 6 -6 14l2 11l253 649q8 20 29 20h34q21 0 29 -20l253 -649l2 -11q0 -8 -6 -14t-14 -6h-20q-9 0 -14.5 5t-7.5 10l-62 160h-354l-62 -160q-2 -5 -7.5 -10t-14.5 -5h-20q-8 0 -14 6zM172 235h306l-153 394zM189 761q0 8 12 20l87 85q9 9 16 11.5t16 2.5h10
q10 0 16.5 -2.5t15.5 -11.5l87 -85q12 -12 12 -20q0 -11 -14 -11h-17q-7 0 -14 2t-11 5l-80 60l-80 -60q-4 -3 -11 -5t-14 -2h-17q-14 0 -14 11z" />
    <glyph glyph-name="Atilde" unicode="&#xc3;" horiz-adv-x="650" 
d="M30 6q-6 6 -6 14l2 11l253 649q8 20 29 20h34q21 0 29 -20l253 -649l2 -11q0 -8 -6 -14t-14 -6h-20q-9 0 -14.5 5t-7.5 10l-62 160h-354l-62 -160q-2 -5 -7.5 -10t-14.5 -5h-20q-8 0 -14 6zM172 235h306l-153 394zM345 749.5q-12 4.5 -32 15.5q-24 14 -36 14
q-8 0 -12.5 -3.5t-9.5 -11.5q-8 -14 -19 -14h-20q-7 0 -11.5 5t-4.5 11q0 29 22 53.5t52 24.5q17 0 30.5 -5t30.5 -15q2 -1 14 -7.5t23 -6.5q8 0 12.5 3.5t9.5 11.5q4 8 8 11.5t11 3.5h20q7 0 11.5 -5t4.5 -11q0 -29 -23 -54t-52 -25q-17 0 -29 4.5z" />
    <glyph glyph-name="Adieresis" unicode="&#xc4;" horiz-adv-x="650" 
d="M30 6q-6 6 -6 14l2 11l253 649q8 20 29 20h34q21 0 29 -20l253 -649l2 -11q0 -8 -6 -14t-14 -6h-20q-9 0 -14.5 5t-7.5 10l-62 160h-354l-62 -160q-2 -5 -7.5 -10t-14.5 -5h-20q-8 0 -14 6zM172 235h306l-153 394zM198 756q-6 6 -6 16v38q0 10 6 16.5t16 6.5h38
q10 0 16.5 -6.5t6.5 -16.5v-38q0 -10 -6.5 -16t-16.5 -6h-38q-10 0 -16 6zM381 756q-6 6 -6 16v38q0 10 6 16.5t16 6.5h38q10 0 16.5 -6.5t6.5 -16.5v-38q0 -10 -6.5 -16t-16.5 -6h-38q-10 0 -16 6z" />
    <glyph glyph-name="Aring" unicode="&#xc5;" horiz-adv-x="650" 
d="M30 6q-6 6 -6 14l2 11l253 649q8 20 29 20h34q21 0 29 -20l253 -649l2 -11q0 -8 -6 -14t-14 -6h-20q-9 0 -14.5 5t-7.5 10l-62 160h-354l-62 -160q-2 -5 -7.5 -10t-14.5 -5h-20q-8 0 -14 6zM172 235h306l-153 394zM268 761q-23 21 -23 54t23 54t57 21t57 -21t23 -54
t-23 -54t-57 -21t-57 21zM346.5 793.5q8.5 8.5 8.5 21.5t-8.5 21.5t-21.5 8.5t-21.5 -8.5t-8.5 -21.5t8.5 -21.5t21.5 -8.5t21.5 8.5z" />
    <glyph glyph-name="AE" unicode="&#xc6;" horiz-adv-x="920" 
d="M11 6q-6 6 -6 14q0 6 4 14l366 647q10 19 26 19h433q11 0 17 -6t6 -17v-15q0 -10 -6.5 -16t-16.5 -6h-349v-255h327q11 0 17 -6t6 -17v-15q0 -10 -6.5 -16t-16.5 -6h-327v-265h357q11 0 17 -6t6 -17v-15q0 -10 -6.5 -16t-16.5 -6h-398q-10 0 -16 6t-6 16v153h-262
l-90 -160q-8 -15 -22 -15h-23q-8 0 -14 6zM194 235h228v398h-1z" />
    <glyph glyph-name="Ccedilla" unicode="&#xc7;" horiz-adv-x="651" 
d="M286 -213q-20 7 -31.5 17t-11.5 19q0 5 3 8l14 13q4 4 9 4q4 0 14 -6.5t19.5 -11t25.5 -4.5q18 0 30.5 11t12.5 29q0 17 -12.5 27.5t-30.5 10.5q-14 0 -28.5 -5t-18.5 -5q-8 0 -13 6l-16 17q-3 3 -3 8t3.5 12t4.5 10l20 47q-104 15 -155.5 85.5t-55.5 181.5q-1 27 -1 88
q0 62 1 90q5 124 70 197.5t195 73.5q89 0 148 -32.5t87.5 -82t31.5 -101.5v-2q0 -8 -6 -13t-15 -5h-20q-18 0 -22 21q-19 85 -69 120t-135 35q-94 0 -146 -53t-56 -163q-1 -27 -1 -83t1 -85q4 -110 56 -163t146 -53q85 0 135 35t69 120q4 21 22 21h20q9 0 15.5 -5.5
t5.5 -14.5q-3 -52 -31.5 -101.5t-87.5 -82t-148 -32.5l-23 -48q13 8 38 8q33 0 54.5 -23t21.5 -59q0 -38 -24 -63t-68 -25q-24 0 -44 7z" />
    <glyph glyph-name="Egrave" unicode="&#xc8;" horiz-adv-x="592" 
d="M100 6q-6 6 -6 16v655q0 10 6 16.5t16 6.5h390q11 0 17 -6t6 -17v-15q0 -10 -6.5 -16t-16.5 -6h-349v-255h327q11 0 17 -6t6 -17v-15q0 -10 -6.5 -16t-16.5 -6h-327v-265h357q11 0 17 -6t6 -17v-15q0 -10 -6.5 -16t-16.5 -6h-398q-10 0 -16 6zM286 752q-6 2 -14 8
l-109 89q-5 5 -5 12q0 19 19 19h46q14 0 21 -3.5t16 -14.5l69 -83q5 -5 5 -13q0 -16 -16 -16h-15q-11 0 -17 2z" />
    <glyph glyph-name="Eacute" unicode="&#xc9;" horiz-adv-x="592" 
d="M100 6q-6 6 -6 16v655q0 10 6 16.5t16 6.5h390q11 0 17 -6t6 -17v-15q0 -10 -6.5 -16t-16.5 -6h-349v-255h327q11 0 17 -6t6 -17v-15q0 -10 -6.5 -16t-16.5 -6h-327v-265h357q11 0 17 -6t6 -17v-15q0 -10 -6.5 -16t-16.5 -6h-398q-10 0 -16 6zM268 766q0 8 5 13l69 83
q9 11 16 14.5t21 3.5h46q19 0 19 -19q0 -7 -5 -12l-109 -89q-8 -6 -14 -8t-17 -2h-15q-16 0 -16 16z" />
    <glyph glyph-name="Ecircumflex" unicode="&#xca;" horiz-adv-x="592" 
d="M100 6q-6 6 -6 16v655q0 10 6 16.5t16 6.5h390q11 0 17 -6t6 -17v-15q0 -10 -6.5 -16t-16.5 -6h-349v-255h327q11 0 17 -6t6 -17v-15q0 -10 -6.5 -16t-16.5 -6h-327v-265h357q11 0 17 -6t6 -17v-15q0 -10 -6.5 -16t-16.5 -6h-398q-10 0 -16 6zM160 761q0 8 12 20l87 85
q9 9 16 11.5t16 2.5h10q10 0 16.5 -2.5t15.5 -11.5l87 -85q12 -12 12 -20q0 -11 -14 -11h-17q-7 0 -14 2t-11 5l-80 60l-80 -60q-4 -3 -11 -5t-14 -2h-17q-14 0 -14 11z" />
    <glyph glyph-name="Edieresis" unicode="&#xcb;" horiz-adv-x="592" 
d="M100 6q-6 6 -6 16v655q0 10 6 16.5t16 6.5h390q11 0 17 -6t6 -17v-15q0 -10 -6.5 -16t-16.5 -6h-349v-255h327q11 0 17 -6t6 -17v-15q0 -10 -6.5 -16t-16.5 -6h-327v-265h357q11 0 17 -6t6 -17v-15q0 -10 -6.5 -16t-16.5 -6h-398q-10 0 -16 6zM169 756q-6 6 -6 16v38
q0 10 6 16.5t16 6.5h38q10 0 16.5 -6.5t6.5 -16.5v-38q0 -10 -6.5 -16t-16.5 -6h-38q-10 0 -16 6zM352 756q-6 6 -6 16v38q0 10 6 16.5t16 6.5h38q10 0 16.5 -6.5t6.5 -16.5v-38q0 -10 -6.5 -16t-16.5 -6h-38q-10 0 -16 6z" />
    <glyph glyph-name="Igrave" unicode="&#xcc;" horiz-adv-x="251" 
d="M100 6q-6 6 -6 16v656q0 10 6 16t16 6h19q10 0 16 -6t6 -16v-656q0 -10 -6 -16t-16 -6h-19q-10 0 -16 6zM116 752q-6 2 -14 8l-109 89q-5 5 -5 12q0 19 19 19h46q14 0 21 -3.5t16 -14.5l69 -83q5 -5 5 -13q0 -16 -16 -16h-15q-11 0 -17 2z" />
    <glyph glyph-name="Iacute" unicode="&#xcd;" horiz-adv-x="251" 
d="M100 6q-6 6 -6 16v656q0 10 6 16t16 6h19q10 0 16 -6t6 -16v-656q0 -10 -6 -16t-16 -6h-19q-10 0 -16 6zM98 766q0 8 5 13l69 83q9 11 16 14.5t21 3.5h46q19 0 19 -19q0 -7 -5 -12l-109 -89q-8 -6 -14 -8t-17 -2h-15q-16 0 -16 16z" />
    <glyph glyph-name="Icircumflex" unicode="&#xce;" horiz-adv-x="251" 
d="M100 6q-6 6 -6 16v656q0 10 6 16t16 6h19q10 0 16 -6t6 -16v-656q0 -10 -6 -16t-16 -6h-19q-10 0 -16 6zM-10 761q0 8 12 20l87 85q9 9 16 11.5t16 2.5h10q10 0 16.5 -2.5t15.5 -11.5l87 -85q12 -12 12 -20q0 -11 -14 -11h-17q-7 0 -14 2t-11 5l-80 60l-80 -60
q-4 -3 -11 -5t-14 -2h-17q-14 0 -14 11z" />
    <glyph glyph-name="Idieresis" unicode="&#xcf;" horiz-adv-x="251" 
d="M100 6q-6 6 -6 16v656q0 10 6 16t16 6h19q10 0 16 -6t6 -16v-656q0 -10 -6 -16t-16 -6h-19q-10 0 -16 6zM-1 756q-6 6 -6 16v38q0 10 6 16.5t16 6.5h38q10 0 16.5 -6.5t6.5 -16.5v-38q0 -10 -6.5 -16t-16.5 -6h-38q-10 0 -16 6zM182 756q-6 6 -6 16v38q0 10 6 16.5
t16 6.5h38q10 0 16.5 -6.5t6.5 -16.5v-38q0 -10 -6.5 -16t-16.5 -6h-38q-10 0 -16 6z" />
    <glyph glyph-name="Eth" unicode="&#xd0;" horiz-adv-x="683" 
d="M106 6q-6 6 -6 16v300h-63q-10 0 -16 6t-6 16v16q0 10 6 16t16 6h63v295q0 10 6 16.5t16 6.5h213q104 0 164.5 -30.5t86 -89.5t27.5 -150q1 -30 1 -79q0 -50 -1 -80q-2 -96 -27.5 -154.5t-84.5 -87.5t-161 -29h-218q-10 0 -16 6zM335 60q80 0 126 21.5t66.5 68
t22.5 126.5q1 30 1 75q0 44 -1 74q-2 112 -52.5 163.5t-167.5 51.5h-167v-258h150q10 0 16 -6t6 -16v-16q0 -10 -6 -16t-16 -6h-150v-262h172z" />
    <glyph glyph-name="Ntilde" unicode="&#xd1;" horiz-adv-x="684" 
d="M100 6q-6 6 -6 16v655q0 10 6 16.5t16 6.5h21q13 0 21 -12l369 -564v553q0 10 6 16.5t16 6.5h18q11 0 17 -6t6 -17v-654q0 -10 -6 -16.5t-16 -6.5h-22q-13 0 -21 12l-368 562v-552q0 -10 -6.5 -16t-16.5 -6h-18q-10 0 -16 6zM362 749.5q-12 4.5 -32 15.5q-24 14 -36 14
q-8 0 -12.5 -3.5t-9.5 -11.5q-8 -14 -19 -14h-20q-7 0 -11.5 5t-4.5 11q0 29 22 53.5t52 24.5q17 0 30.5 -5t30.5 -15q2 -1 14 -7.5t23 -6.5q8 0 12.5 3.5t9.5 11.5q4 8 8 11.5t11 3.5h20q7 0 11.5 -5t4.5 -11q0 -29 -23 -54t-52 -25q-17 0 -29 4.5z" />
    <glyph glyph-name="Ograve" unicode="&#xd2;" horiz-adv-x="662" 
d="M67 266q-1 30 -1 84t1 84q4 136 74 206t190 70t190 -70t74 -206q2 -60 2 -84t-2 -84q-7 -276 -264 -276t-264 276zM474.5 104.5q53.5 54.5 57.5 166.5q2 60 2 79t-2 79q-4 112 -58 166.5t-143 54.5t-143 -54.5t-58 -166.5q-1 -30 -1 -79t1 -79q4 -112 57.5 -166.5
t143.5 -54.5t143.5 54.5zM321 752q-6 2 -14 8l-109 89q-5 5 -5 12q0 19 19 19h46q14 0 21 -3.5t16 -14.5l69 -83q5 -5 5 -13q0 -16 -16 -16h-15q-11 0 -17 2z" />
    <glyph glyph-name="Oacute" unicode="&#xd3;" horiz-adv-x="662" 
d="M67 266q-1 30 -1 84t1 84q4 136 74 206t190 70t190 -70t74 -206q2 -60 2 -84t-2 -84q-7 -276 -264 -276t-264 276zM474.5 104.5q53.5 54.5 57.5 166.5q2 60 2 79t-2 79q-4 112 -58 166.5t-143 54.5t-143 -54.5t-58 -166.5q-1 -30 -1 -79t1 -79q4 -112 57.5 -166.5
t143.5 -54.5t143.5 54.5zM303 766q0 8 5 13l69 83q9 11 16 14.5t21 3.5h46q19 0 19 -19q0 -7 -5 -12l-109 -89q-8 -6 -14 -8t-17 -2h-15q-16 0 -16 16z" />
    <glyph glyph-name="Ocircumflex" unicode="&#xd4;" horiz-adv-x="662" 
d="M67 266q-1 30 -1 84t1 84q4 136 74 206t190 70t190 -70t74 -206q2 -60 2 -84t-2 -84q-7 -276 -264 -276t-264 276zM474.5 104.5q53.5 54.5 57.5 166.5q2 60 2 79t-2 79q-4 112 -58 166.5t-143 54.5t-143 -54.5t-58 -166.5q-1 -30 -1 -79t1 -79q4 -112 57.5 -166.5
t143.5 -54.5t143.5 54.5zM195 761q0 8 12 20l87 85q9 9 16 11.5t16 2.5h10q10 0 16.5 -2.5t15.5 -11.5l87 -85q12 -12 12 -20q0 -11 -14 -11h-17q-7 0 -14 2t-11 5l-80 60l-80 -60q-4 -3 -11 -5t-14 -2h-17q-14 0 -14 11z" />
    <glyph glyph-name="Otilde" unicode="&#xd5;" horiz-adv-x="662" 
d="M67 266q-1 30 -1 84t1 84q4 136 74 206t190 70t190 -70t74 -206q2 -60 2 -84t-2 -84q-7 -276 -264 -276t-264 276zM474.5 104.5q53.5 54.5 57.5 166.5q2 60 2 79t-2 79q-4 112 -58 166.5t-143 54.5t-143 -54.5t-58 -166.5q-1 -30 -1 -79t1 -79q4 -112 57.5 -166.5
t143.5 -54.5t143.5 54.5zM351 749.5q-12 4.5 -32 15.5q-24 14 -36 14q-8 0 -12.5 -3.5t-9.5 -11.5q-8 -14 -19 -14h-20q-7 0 -11.5 5t-4.5 11q0 29 22 53.5t52 24.5q17 0 30.5 -5t30.5 -15q2 -1 14 -7.5t23 -6.5q8 0 12.5 3.5t9.5 11.5q4 8 8 11.5t11 3.5h20q7 0 11.5 -5
t4.5 -11q0 -29 -23 -54t-52 -25q-17 0 -29 4.5z" />
    <glyph glyph-name="Odieresis" unicode="&#xd6;" horiz-adv-x="662" 
d="M67 266q-1 30 -1 84t1 84q4 136 74 206t190 70t190 -70t74 -206q2 -60 2 -84t-2 -84q-7 -276 -264 -276t-264 276zM474.5 104.5q53.5 54.5 57.5 166.5q2 60 2 79t-2 79q-4 112 -58 166.5t-143 54.5t-143 -54.5t-58 -166.5q-1 -30 -1 -79t1 -79q4 -112 57.5 -166.5
t143.5 -54.5t143.5 54.5zM204 756q-6 6 -6 16v38q0 10 6 16.5t16 6.5h38q10 0 16.5 -6.5t6.5 -16.5v-38q0 -10 -6.5 -16t-16.5 -6h-38q-10 0 -16 6zM387 756q-6 6 -6 16v38q0 10 6 16.5t16 6.5h38q10 0 16.5 -6.5t6.5 -16.5v-38q0 -10 -6.5 -16t-16.5 -6h-38q-10 0 -16 6z
" />
    <glyph glyph-name="multiply" unicode="&#xd7;" horiz-adv-x="541" 
d="M74 148q-7 9 -7 16q0 8 7 15l153 153l-153 154q-7 9 -7 16q0 8 7 15l12 12q7 7 16 7t15 -7l153 -154l154 154q7 7 16 7t15 -7l12 -12q7 -6 7 -15t-7 -16l-154 -154l154 -153q7 -6 7 -15t-7 -16l-12 -12q-7 -7 -15 -7q-7 0 -16 7l-154 153l-153 -153q-7 -7 -15 -7
q-7 0 -16 7z" />
    <glyph glyph-name="Oslash" unicode="&#xd8;" horiz-adv-x="682" 
d="M81 222l-38 -14q-8 -3 -13 -3q-9 0 -14 4.5t-5 13.5v19q0 11 4.5 15.5t17.5 9.5l44 17q-1 20 -1 57q0 27 2 93q4 136 74 206t190 70q107 0 175 -56t84 -166l37 14q7 3 13 3q9 0 14 -4.5t5 -13.5v-19q0 -11 -4.5 -15.5t-17.5 -9.5l-42 -16q2 -56 2 -80q0 -23 -2 -81
q-7 -276 -264 -276q-236 0 -261 232zM540 464q-12 95 -64 140.5t-134 45.5q-89 0 -143 -54.5t-58 -166.5q-2 -68 -2 -89v-31zM485.5 104.5q53.5 54.5 57.5 166.5q1 36 1 94v38l-402 -157q9 -100 62 -148t138 -48q90 0 143.5 54.5z" />
    <glyph glyph-name="Ugrave" unicode="&#xd9;" horiz-adv-x="691" 
d="M154.5 59.5q-66.5 69.5 -66.5 211.5v406q0 10 6 16.5t16 6.5h18q11 0 17 -6t6 -17v-409q0 -110 51 -164t144 -54q92 0 143 54t51 164v409q0 11 6.5 17t16.5 6h18q10 0 16 -6.5t6 -16.5v-406q0 -143 -66 -212t-191 -69t-191.5 69.5zM336 752q-6 2 -14 8l-109 89
q-5 5 -5 12q0 19 19 19h46q14 0 21 -3.5t16 -14.5l69 -83q5 -5 5 -13q0 -16 -16 -16h-15q-11 0 -17 2z" />
    <glyph glyph-name="Uacute" unicode="&#xda;" horiz-adv-x="691" 
d="M154.5 59.5q-66.5 69.5 -66.5 211.5v406q0 10 6 16.5t16 6.5h18q11 0 17 -6t6 -17v-409q0 -110 51 -164t144 -54q92 0 143 54t51 164v409q0 11 6.5 17t16.5 6h18q10 0 16 -6.5t6 -16.5v-406q0 -143 -66 -212t-191 -69t-191.5 69.5zM318 766q0 8 5 13l69 83q9 11 16 14.5
t21 3.5h46q19 0 19 -19q0 -7 -5 -12l-109 -89q-8 -6 -14 -8t-17 -2h-15q-16 0 -16 16z" />
    <glyph glyph-name="Ucircumflex" unicode="&#xdb;" horiz-adv-x="691" 
d="M154.5 59.5q-66.5 69.5 -66.5 211.5v406q0 10 6 16.5t16 6.5h18q11 0 17 -6t6 -17v-409q0 -110 51 -164t144 -54q92 0 143 54t51 164v409q0 11 6.5 17t16.5 6h18q10 0 16 -6.5t6 -16.5v-406q0 -143 -66 -212t-191 -69t-191.5 69.5zM210 761q0 8 12 20l87 85q9 9 16 11.5
t16 2.5h10q10 0 16.5 -2.5t15.5 -11.5l87 -85q12 -12 12 -20q0 -11 -14 -11h-17q-7 0 -14 2t-11 5l-80 60l-80 -60q-4 -3 -11 -5t-14 -2h-17q-14 0 -14 11z" />
    <glyph glyph-name="Udieresis" unicode="&#xdc;" horiz-adv-x="691" 
d="M154.5 59.5q-66.5 69.5 -66.5 211.5v406q0 10 6 16.5t16 6.5h18q11 0 17 -6t6 -17v-409q0 -110 51 -164t144 -54q92 0 143 54t51 164v409q0 11 6.5 17t16.5 6h18q10 0 16 -6.5t6 -16.5v-406q0 -143 -66 -212t-191 -69t-191.5 69.5zM219 756q-6 6 -6 16v38q0 10 6 16.5
t16 6.5h38q10 0 16.5 -6.5t6.5 -16.5v-38q0 -10 -6.5 -16t-16.5 -6h-38q-10 0 -16 6zM402 756q-6 6 -6 16v38q0 10 6 16.5t16 6.5h38q10 0 16.5 -6.5t6.5 -16.5v-38q0 -10 -6.5 -16t-16.5 -6h-38q-10 0 -16 6z" />
    <glyph glyph-name="Yacute" unicode="&#xdd;" horiz-adv-x="632" 
d="M290 6q-6 6 -6 16v245l-244 400q-4 8 -4 13q0 8 6 14t14 6h20q14 0 23 -15l217 -353l217 353q9 15 23 15h20q8 0 14 -6t6 -14q0 -5 -4 -13l-244 -400v-245q0 -10 -6.5 -16t-16.5 -6h-19q-10 0 -16 6zM288 766q0 8 5 13l69 83q9 11 16 14.5t21 3.5h46q19 0 19 -19
q0 -7 -5 -12l-109 -89q-8 -6 -14 -8t-17 -2h-15q-16 0 -16 16z" />
    <glyph glyph-name="Thorn" unicode="&#xde;" horiz-adv-x="633" 
d="M100 6q-6 6 -6 16v656q0 10 6 16t16 6h19q10 0 16 -6t6 -16v-121h202q107 0 168.5 -53.5t61.5 -153.5t-61.5 -153.5t-168.5 -53.5h-202v-121q0 -10 -6.5 -16t-16.5 -6h-18q-10 0 -16 6zM354 203q86 0 129 37.5t43 109.5t-43 109.5t-129 37.5h-197v-294h197z" />
    <glyph glyph-name="germandbls" unicode="&#xdf;" horiz-adv-x="568" 
d="M88 6q-6 6 -6 16v480q0 90 50 149t152 59q68 0 114 -26.5t67.5 -68t21.5 -87.5q0 -59 -27 -97t-63 -54q119 -38 119 -175q0 -48 -22.5 -94.5t-71.5 -77t-122 -30.5h-75q-10 0 -16 6t-6 16v14q0 10 6 16t16 6h65q79 0 122 40.5t43 103.5q0 64 -43 104.5t-122 40.5h-65
q-10 0 -16 6t-6 16v14q0 10 6 16t16 6h55q146 1 146 123q0 54 -39.5 89t-102.5 35q-66 0 -103.5 -39.5t-37.5 -115.5v-475q0 -10 -6 -16t-16 -6h-17q-10 0 -16 6z" />
    <glyph glyph-name="agrave" unicode="&#xe0;" horiz-adv-x="536" 
d="M132 10q-41 20 -65.5 54t-24.5 75q0 66 53.5 108t144.5 54l158 22v35q0 55 -33.5 84.5t-102.5 29.5q-51 0 -83.5 -20t-41.5 -48q-4 -12 -9.5 -16.5t-14.5 -4.5h-14q-9 0 -15.5 6.5t-6.5 15.5q0 22 20 51.5t62 51.5t103 22q107 0 152 -51t45 -124v-333q0 -10 -6 -16
t-16 -6h-17q-10 0 -16 6t-6 16v47q-22 -33 -64.5 -56t-112.5 -23q-48 0 -89 20zM351 96q47 48 47 138v34l-129 -18q-82 -11 -124 -38t-42 -68q0 -46 38.5 -71t89.5 -25q73 0 120 48zM256 597q-6 2 -14 8l-109 89q-5 5 -5 12q0 19 19 19h41q14 0 21 -3.5t16 -14.5l69 -83
q5 -5 5 -13q0 -16 -16 -16h-10q-11 0 -17 2z" />
    <glyph glyph-name="aacute" unicode="&#xe1;" horiz-adv-x="536" 
d="M132 10q-41 20 -65.5 54t-24.5 75q0 66 53.5 108t144.5 54l158 22v35q0 55 -33.5 84.5t-102.5 29.5q-51 0 -83.5 -20t-41.5 -48q-4 -12 -9.5 -16.5t-14.5 -4.5h-14q-9 0 -15.5 6.5t-6.5 15.5q0 22 20 51.5t62 51.5t103 22q107 0 152 -51t45 -124v-333q0 -10 -6 -16
t-16 -6h-17q-10 0 -16 6t-6 16v47q-22 -33 -64.5 -56t-112.5 -23q-48 0 -89 20zM351 96q47 48 47 138v34l-129 -18q-82 -11 -124 -38t-42 -68q0 -46 38.5 -71t89.5 -25q73 0 120 48zM213 611q0 8 5 13l69 83q9 11 16 14.5t21 3.5h41q19 0 19 -19q0 -7 -5 -12l-109 -89
q-8 -6 -14 -8t-17 -2h-10q-16 0 -16 16z" />
    <glyph glyph-name="acircumflex" unicode="&#xe2;" horiz-adv-x="536" 
d="M132 10q-41 20 -65.5 54t-24.5 75q0 66 53.5 108t144.5 54l158 22v35q0 55 -33.5 84.5t-102.5 29.5q-51 0 -83.5 -20t-41.5 -48q-4 -12 -9.5 -16.5t-14.5 -4.5h-14q-9 0 -15.5 6.5t-6.5 15.5q0 22 20 51.5t62 51.5t103 22q107 0 152 -51t45 -124v-333q0 -10 -6 -16
t-16 -6h-17q-10 0 -16 6t-6 16v47q-22 -33 -64.5 -56t-112.5 -23q-48 0 -89 20zM351 96q47 48 47 138v34l-129 -18q-82 -11 -124 -38t-42 -68q0 -46 38.5 -71t89.5 -25q73 0 120 48zM124 606q0 8 12 20l87 85q9 9 15.5 11.5t16.5 2.5h10q9 0 16 -2.5t16 -11.5l87 -85
q12 -12 12 -20q0 -11 -14 -11h-17q-7 0 -14 2t-11 5l-80 60l-80 -60q-4 -3 -11 -5t-14 -2h-17q-14 0 -14 11z" />
    <glyph glyph-name="atilde" unicode="&#xe3;" horiz-adv-x="536" 
d="M132 10q-41 20 -65.5 54t-24.5 75q0 66 53.5 108t144.5 54l158 22v35q0 55 -33.5 84.5t-102.5 29.5q-51 0 -83.5 -20t-41.5 -48q-4 -12 -9.5 -16.5t-14.5 -4.5h-14q-9 0 -15.5 6.5t-6.5 15.5q0 22 20 51.5t62 51.5t103 22q107 0 152 -51t45 -124v-333q0 -10 -6 -16
t-16 -6h-17q-10 0 -16 6t-6 16v47q-22 -33 -64.5 -56t-112.5 -23q-48 0 -89 20zM351 96q47 48 47 138v34l-129 -18q-82 -11 -124 -38t-42 -68q0 -46 38.5 -71t89.5 -25q73 0 120 48zM279.5 595q-11.5 5 -28.5 15q-8 5 -16.5 9.5t-16.5 4.5t-12.5 -3.5t-9.5 -11.5
q-8 -14 -19 -14h-20q-7 0 -11.5 5t-4.5 11q0 29 20.5 51t50.5 22q17 0 29.5 -5t27.5 -15q8 -5 16.5 -9.5t17.5 -4.5q8 0 12.5 3.5t9.5 11.5q4 8 8 11.5t11 3.5h20q7 0 11.5 -5t4.5 -11q0 -29 -21.5 -51.5t-50.5 -22.5q-17 0 -28.5 5z" />
    <glyph glyph-name="adieresis" unicode="&#xe4;" horiz-adv-x="536" 
d="M132 10q-41 20 -65.5 54t-24.5 75q0 66 53.5 108t144.5 54l158 22v35q0 55 -33.5 84.5t-102.5 29.5q-51 0 -83.5 -20t-41.5 -48q-4 -12 -9.5 -16.5t-14.5 -4.5h-14q-9 0 -15.5 6.5t-6.5 15.5q0 22 20 51.5t62 51.5t103 22q107 0 152 -51t45 -124v-333q0 -10 -6 -16
t-16 -6h-17q-10 0 -16 6t-6 16v47q-22 -33 -64.5 -56t-112.5 -23q-48 0 -89 20zM351 96q47 48 47 138v34l-129 -18q-82 -11 -124 -38t-42 -68q0 -46 38.5 -71t89.5 -25q73 0 120 48zM153 633q-6 6 -6 16v38q0 10 6 16.5t16 6.5h38q10 0 16.5 -6.5t6.5 -16.5v-38
q0 -10 -6.5 -16t-16.5 -6h-38q-10 0 -16 6zM306 633q-6 6 -6 16v38q0 10 6 16.5t16 6.5h38q10 0 16.5 -6.5t6.5 -16.5v-38q0 -10 -6.5 -16t-16.5 -6h-38q-10 0 -16 6z" />
    <glyph glyph-name="aring" unicode="&#xe5;" horiz-adv-x="536" 
d="M132 10q-41 20 -65.5 54t-24.5 75q0 66 53.5 108t144.5 54l158 22v35q0 55 -33.5 84.5t-102.5 29.5q-51 0 -83.5 -20t-41.5 -48q-4 -12 -9.5 -16.5t-14.5 -4.5h-14q-9 0 -15.5 6.5t-6.5 15.5q0 22 20 51.5t62 51.5t103 22q107 0 152 -51t45 -124v-333q0 -10 -6 -16
t-16 -6h-17q-10 0 -16 6t-6 16v47q-22 -33 -64.5 -56t-112.5 -23q-48 0 -89 20zM351 96q47 48 47 138v34l-129 -18q-82 -11 -124 -38t-42 -68q0 -46 38.5 -71t89.5 -25q73 0 120 48zM203 611q-23 21 -23 54t23 54t57 21t57 -21t23 -54t-23 -54t-57 -21t-57 21zM281.5 643.5
q8.5 8.5 8.5 21.5t-8.5 21.5t-21.5 8.5t-21.5 -8.5t-8.5 -21.5t8.5 -21.5t21.5 -8.5t21.5 8.5z" />
    <glyph glyph-name="ae" unicode="&#xe6;" horiz-adv-x="881" 
d="M129 9.5q-41 19.5 -63.5 53.5t-22.5 76q0 66 54 109.5t144 55.5l158 22v32q0 55 -33.5 84.5t-102.5 29.5q-52 0 -84.5 -20t-41.5 -48q-4 -12 -9.5 -16.5t-14.5 -4.5h-14q-9 0 -15.5 6.5t-6.5 15.5q0 22 20.5 51.5t62.5 51.5t103 22q71 0 114.5 -24t63.5 -64q58 88 174 88
q124 0 169.5 -77.5t45.5 -180.5v-15q0 -10 -6.5 -16t-16.5 -6h-346v-10q2 -61 24.5 -101t57 -58t71.5 -18q42 0 79 16t60 49q8 12 13.5 15t16.5 3h12q9 0 15 -5.5t6 -14.5q0 -18 -24.5 -47t-70 -51.5t-107.5 -22.5q-134 0 -187 110q-58 -110 -205 -110q-52 0 -93 19.5z
M769 291v4q0 79 -39 128t-115 49q-40 0 -74 -19.5t-56 -59.5t-24 -98v-4h308zM352 96q47 48 47 138v34l-129 -18q-82 -11 -124 -38t-42 -68q0 -46 38.5 -71t89.5 -25q73 0 120 48z" />
    <glyph glyph-name="ccedilla" unicode="&#xe7;" horiz-adv-x="536" 
d="M233 -213q-20 7 -31.5 17t-11.5 19q0 5 3 8l14 13q4 4 9 4q4 0 14 -6.5t19.5 -11t25.5 -4.5q18 0 30.5 11t12.5 29q0 17 -12.5 27.5t-30.5 10.5q-14 0 -28.5 -5t-18.5 -5q-8 0 -13 6l-16 17q-3 3 -3 8t3.5 12t4.5 10l21 48q-80 14 -123 72.5t-45 152.5l-1 40l1 40
q3 109 60 169.5t161 60.5q66 0 112.5 -23.5t69.5 -60t25 -75.5q1 -9 -6 -15.5t-16 -6.5h-14q-10 0 -14.5 4.5t-9.5 16.5q-20 55 -56 78.5t-91 23.5q-72 0 -114.5 -43.5t-45.5 -133.5l-1 -35l1 -35q3 -90 45.5 -133.5t114.5 -43.5q55 0 91 23.5t56 78.5q5 12 9.5 16.5
t14.5 4.5h14q9 0 16 -6.5t6 -15.5q-2 -39 -25 -75.5t-69.5 -60t-112.5 -23.5l-23 -48q13 8 38 8q33 0 54.5 -23t21.5 -59q0 -38 -24 -63t-68 -25q-24 0 -44 7z" />
    <glyph glyph-name="egrave" unicode="&#xe8;" horiz-adv-x="546" 
d="M121 52.5q-58 62.5 -66 167.5l-1 40l1 40q8 104 65.5 167t153.5 63q104 0 162.5 -69t58.5 -189v-15q0 -10 -6.5 -16t-16.5 -6h-356v-10q2 -47 21.5 -87.5t54.5 -65t82 -24.5q55 0 89.5 21.5t49.5 43.5q9 12 13.5 15t16.5 3h16q9 0 15 -5t6 -13q0 -21 -26.5 -50.5
t-73.5 -51t-106 -21.5q-95 0 -153 62.5zM434 291v4q0 77 -43.5 127t-116.5 50t-115.5 -50t-42.5 -127v-4h318zM264 597q-6 2 -14 8l-109 89q-5 5 -5 12q0 19 19 19h41q14 0 21 -3.5t16 -14.5l69 -83q5 -5 5 -13q0 -16 -16 -16h-10q-11 0 -17 2z" />
    <glyph glyph-name="eacute" unicode="&#xe9;" horiz-adv-x="546" 
d="M121 52.5q-58 62.5 -66 167.5l-1 40l1 40q8 104 65.5 167t153.5 63q104 0 162.5 -69t58.5 -189v-15q0 -10 -6.5 -16t-16.5 -6h-356v-10q2 -47 21.5 -87.5t54.5 -65t82 -24.5q55 0 89.5 21.5t49.5 43.5q9 12 13.5 15t16.5 3h16q9 0 15 -5t6 -13q0 -21 -26.5 -50.5
t-73.5 -51t-106 -21.5q-95 0 -153 62.5zM434 291v4q0 77 -43.5 127t-116.5 50t-115.5 -50t-42.5 -127v-4h318zM243 611q0 8 5 13l69 83q9 11 16 14.5t21 3.5h41q19 0 19 -19q0 -7 -5 -12l-109 -89q-8 -6 -14 -8t-17 -2h-10q-16 0 -16 16z" />
    <glyph glyph-name="ecircumflex" unicode="&#xea;" horiz-adv-x="546" 
d="M121 52.5q-58 62.5 -66 167.5l-1 40l1 40q8 104 65.5 167t153.5 63q104 0 162.5 -69t58.5 -189v-15q0 -10 -6.5 -16t-16.5 -6h-356v-10q2 -47 21.5 -87.5t54.5 -65t82 -24.5q55 0 89.5 21.5t49.5 43.5q9 12 13.5 15t16.5 3h16q9 0 15 -5t6 -13q0 -21 -26.5 -50.5
t-73.5 -51t-106 -21.5q-95 0 -153 62.5zM434 291v4q0 77 -43.5 127t-116.5 50t-115.5 -50t-42.5 -127v-4h318zM138 606q0 8 12 20l87 85q9 9 15.5 11.5t16.5 2.5h10q9 0 16 -2.5t16 -11.5l87 -85q12 -12 12 -20q0 -11 -14 -11h-17q-7 0 -14 2t-11 5l-80 60l-80 -60
q-4 -3 -11 -5t-14 -2h-17q-14 0 -14 11z" />
    <glyph glyph-name="edieresis" unicode="&#xeb;" horiz-adv-x="546" 
d="M121 52.5q-58 62.5 -66 167.5l-1 40l1 40q8 104 65.5 167t153.5 63q104 0 162.5 -69t58.5 -189v-15q0 -10 -6.5 -16t-16.5 -6h-356v-10q2 -47 21.5 -87.5t54.5 -65t82 -24.5q55 0 89.5 21.5t49.5 43.5q9 12 13.5 15t16.5 3h16q9 0 15 -5t6 -13q0 -21 -26.5 -50.5
t-73.5 -51t-106 -21.5q-95 0 -153 62.5zM434 291v4q0 77 -43.5 127t-116.5 50t-115.5 -50t-42.5 -127v-4h318zM162 633q-6 6 -6 16v38q0 10 6 16.5t16 6.5h38q10 0 16.5 -6.5t6.5 -16.5v-38q0 -10 -6.5 -16t-16.5 -6h-38q-10 0 -16 6zM315 633q-6 6 -6 16v38q0 10 6 16.5
t16 6.5h38q10 0 16.5 -6.5t6.5 -16.5v-38q0 -10 -6.5 -16t-16.5 -6h-38q-10 0 -16 6z" />
    <glyph glyph-name="igrave" unicode="&#xec;" horiz-adv-x="223" 
d="M87 6q-6 6 -6 16v476q0 10 6 16t16 6h17q10 0 16 -6t6 -16v-476q0 -10 -6 -16t-16 -6h-17q-10 0 -16 6zM101 597q-6 2 -14 8l-109 89q-5 5 -5 12q0 19 19 19h41q14 0 21 -3.5t16 -14.5l69 -83q5 -5 5 -13q0 -16 -16 -16h-10q-11 0 -17 2z" />
    <glyph glyph-name="iacute" unicode="&#xed;" horiz-adv-x="223" 
d="M87 6q-6 6 -6 16v476q0 10 6 16t16 6h17q10 0 16 -6t6 -16v-476q0 -10 -6 -16t-16 -6h-17q-10 0 -16 6zM79 611q0 8 5 13l69 83q9 11 16 14.5t21 3.5h41q19 0 19 -19q0 -7 -5 -12l-109 -89q-8 -6 -14 -8t-17 -2h-10q-16 0 -16 16z" />
    <glyph glyph-name="icircumflex" unicode="&#xee;" horiz-adv-x="223" 
d="M87 6q-6 6 -6 16v476q0 10 6 16t16 6h17q10 0 16 -6t6 -16v-476q0 -10 -6 -16t-16 -6h-17q-10 0 -16 6zM-25 606q0 8 12 20l87 85q9 9 15.5 11.5t16.5 2.5h10q9 0 16 -2.5t16 -11.5l87 -85q12 -12 12 -20q0 -11 -14 -11h-17q-7 0 -14 2t-11 5l-80 60l-80 -60
q-4 -3 -11 -5t-14 -2h-17q-14 0 -14 11z" />
    <glyph glyph-name="idieresis" unicode="&#xef;" horiz-adv-x="223" 
d="M87 6q-6 6 -6 16v476q0 10 6 16t16 6h17q10 0 16 -6t6 -16v-476q0 -10 -6 -16t-16 -6h-17q-10 0 -16 6zM-1 633q-6 6 -6 16v38q0 10 6 16.5t16 6.5h38q10 0 16.5 -6.5t6.5 -16.5v-38q0 -10 -6.5 -16t-16.5 -6h-38q-10 0 -16 6zM152 633q-6 6 -6 16v38q0 10 6 16.5t16 6.5
h38q10 0 16.5 -6.5t6.5 -16.5v-38q0 -10 -6.5 -16t-16.5 -6h-38q-10 0 -16 6z" />
    <glyph glyph-name="eth" unicode="&#xf0;" horiz-adv-x="550" 
d="M154 21q-49 31 -74.5 85t-25.5 122q0 108 57 175t162 67q79 0 132 -39q-23 70 -65 122l-96 -37q-7 -3 -13 -3q-9 0 -14 4.5t-5 13.5v19q0 11 4.5 15.5t17.5 9.5l62 24q-27 26 -67 59q-17 13 -17 22t5.5 14.5t14.5 5.5h20q20 0 36 -13q43 -38 69 -65l93 36q8 3 13 3
q9 0 14 -4.5t5 -13.5v-19q0 -11 -4.5 -15.5t-17.5 -9.5l-62 -24q45 -59 69 -140t25 -203v-3q0 -106 -57.5 -172.5t-161.5 -66.5q-70 0 -119 31zM389 98.5q41 50.5 42 129.5v4q0 79 -41 129.5t-117 50.5t-117 -50.5t-41 -129.5v-6q2 -78 43 -128t115 -50q75 0 116 50.5z" />
    <glyph glyph-name="ntilde" unicode="&#xf1;" horiz-adv-x="590" 
d="M87 6q-6 6 -6 16v476q0 10 6 16t16 6h17q10 0 16 -6t6 -16v-47q30 39 68.5 59t99.5 20q98 0 151 -62.5t53 -161.5v-284q0 -10 -6 -16t-16 -6h-17q-10 0 -16 6t-6 16v279q0 81 -39.5 126t-113.5 45q-72 0 -115 -45.5t-43 -125.5v-279q0 -10 -6 -16t-16 -6h-17q-10 0 -16 6
zM316.5 595q-11.5 5 -28.5 15q-8 5 -16.5 9.5t-16.5 4.5t-12.5 -3.5t-9.5 -11.5q-8 -14 -19 -14h-20q-7 0 -11.5 5t-4.5 11q0 29 20.5 51t50.5 22q17 0 29.5 -5t27.5 -15q8 -5 16.5 -9.5t17.5 -4.5q8 0 12.5 3.5t9.5 11.5q4 8 8 11.5t11 3.5h20q7 0 11.5 -5t4.5 -11
q0 -29 -21.5 -51.5t-50.5 -22.5q-17 0 -28.5 5z" />
    <glyph glyph-name="ograve" unicode="&#xf2;" horiz-adv-x="558" 
d="M117.5 53.5q-57.5 63.5 -60.5 164.5l-1 42l1 42q3 101 60.5 164.5t161.5 63.5t161.5 -63.5t60.5 -164.5q1 -10 1 -42t-1 -42q-3 -101 -60.5 -164.5t-161.5 -63.5t-161.5 63.5zM393.5 93.5q43.5 45.5 46.5 129.5q1 10 1 37t-1 37q-3 84 -46.5 129.5t-114.5 45.5
t-114.5 -45.5t-46.5 -129.5l-1 -37l1 -37q3 -84 46.5 -129.5t114.5 -45.5t114.5 45.5zM269 597q-6 2 -14 8l-109 89q-5 5 -5 12q0 19 19 19h41q14 0 21 -3.5t16 -14.5l69 -83q5 -5 5 -13q0 -16 -16 -16h-10q-11 0 -17 2z" />
    <glyph glyph-name="oacute" unicode="&#xf3;" horiz-adv-x="558" 
d="M117.5 53.5q-57.5 63.5 -60.5 164.5l-1 42l1 42q3 101 60.5 164.5t161.5 63.5t161.5 -63.5t60.5 -164.5q1 -10 1 -42t-1 -42q-3 -101 -60.5 -164.5t-161.5 -63.5t-161.5 63.5zM393.5 93.5q43.5 45.5 46.5 129.5q1 10 1 37t-1 37q-3 84 -46.5 129.5t-114.5 45.5
t-114.5 -45.5t-46.5 -129.5l-1 -37l1 -37q3 -84 46.5 -129.5t114.5 -45.5t114.5 45.5zM246 611q0 8 5 13l69 83q9 11 16 14.5t21 3.5h41q19 0 19 -19q0 -7 -5 -12l-109 -89q-8 -6 -14 -8t-17 -2h-10q-16 0 -16 16z" />
    <glyph glyph-name="ocircumflex" unicode="&#xf4;" horiz-adv-x="558" 
d="M117.5 53.5q-57.5 63.5 -60.5 164.5l-1 42l1 42q3 101 60.5 164.5t161.5 63.5t161.5 -63.5t60.5 -164.5q1 -10 1 -42t-1 -42q-3 -101 -60.5 -164.5t-161.5 -63.5t-161.5 63.5zM393.5 93.5q43.5 45.5 46.5 129.5q1 10 1 37t-1 37q-3 84 -46.5 129.5t-114.5 45.5
t-114.5 -45.5t-46.5 -129.5l-1 -37l1 -37q3 -84 46.5 -129.5t114.5 -45.5t114.5 45.5zM143 606q0 8 12 20l87 85q9 9 15.5 11.5t16.5 2.5h10q9 0 16 -2.5t16 -11.5l87 -85q12 -12 12 -20q0 -11 -14 -11h-17q-7 0 -14 2t-11 5l-80 60l-80 -60q-4 -3 -11 -5t-14 -2h-17
q-14 0 -14 11z" />
    <glyph glyph-name="otilde" unicode="&#xf5;" horiz-adv-x="558" 
d="M117.5 53.5q-57.5 63.5 -60.5 164.5l-1 42l1 42q3 101 60.5 164.5t161.5 63.5t161.5 -63.5t60.5 -164.5q1 -10 1 -42t-1 -42q-3 -101 -60.5 -164.5t-161.5 -63.5t-161.5 63.5zM393.5 93.5q43.5 45.5 46.5 129.5q1 10 1 37t-1 37q-3 84 -46.5 129.5t-114.5 45.5
t-114.5 -45.5t-46.5 -129.5l-1 -37l1 -37q3 -84 46.5 -129.5t114.5 -45.5t114.5 45.5zM298.5 595q-11.5 5 -28.5 15q-8 5 -16.5 9.5t-16.5 4.5t-12.5 -3.5t-9.5 -11.5q-8 -14 -19 -14h-20q-7 0 -11.5 5t-4.5 11q0 29 20.5 51t50.5 22q17 0 29.5 -5t27.5 -15q8 -5 16.5 -9.5
t17.5 -4.5q8 0 12.5 3.5t9.5 11.5q4 8 8 11.5t11 3.5h20q7 0 11.5 -5t4.5 -11q0 -29 -21.5 -51.5t-50.5 -22.5q-17 0 -28.5 5z" />
    <glyph glyph-name="odieresis" unicode="&#xf6;" horiz-adv-x="558" 
d="M117.5 53.5q-57.5 63.5 -60.5 164.5l-1 42l1 42q3 101 60.5 164.5t161.5 63.5t161.5 -63.5t60.5 -164.5q1 -10 1 -42t-1 -42q-3 -101 -60.5 -164.5t-161.5 -63.5t-161.5 63.5zM393.5 93.5q43.5 45.5 46.5 129.5q1 10 1 37t-1 37q-3 84 -46.5 129.5t-114.5 45.5
t-114.5 -45.5t-46.5 -129.5l-1 -37l1 -37q3 -84 46.5 -129.5t114.5 -45.5t114.5 45.5zM167 633q-6 6 -6 16v38q0 10 6 16.5t16 6.5h38q10 0 16.5 -6.5t6.5 -16.5v-38q0 -10 -6.5 -16t-16.5 -6h-38q-10 0 -16 6zM320 633q-6 6 -6 16v38q0 10 6 16.5t16 6.5h38q10 0 16.5 -6.5
t6.5 -16.5v-38q0 -10 -6.5 -16t-16.5 -6h-38q-10 0 -16 6z" />
    <glyph glyph-name="divide" unicode="&#xf7;" horiz-adv-x="565" 
d="M242 436q-6 6 -6 16v48q0 10 6 16.5t16 6.5h48q10 0 16.5 -6.5t6.5 -16.5v-48q0 -10 -6.5 -16t-16.5 -6h-48q-10 0 -16 6zM79 278q-6 6 -6 16v14q0 10 6 16t16 6h375q10 0 16 -6t6 -16v-14q0 -10 -6 -16t-16 -6h-375q-10 0 -16 6zM242 86q-6 6 -6 16v48q0 10 6 16.5
t16 6.5h48q10 0 16.5 -6.5t6.5 -16.5v-48q0 -10 -6.5 -16t-16.5 -6h-48q-10 0 -16 6z" />
    <glyph glyph-name="oslash" unicode="&#xf8;" horiz-adv-x="594" 
d="M156 32.5q-52 42.5 -71 111.5l-38 -15q-8 -3 -13 -3q-9 0 -14 4.5t-5 13.5v19q0 11 4.5 15.5t17.5 9.5l39 15q-2 19 -2 56q0 29 1 43q3 95 56 161.5t166 66.5q90 0 142 -44t70 -115l38 15q8 3 13 3q9 0 14 -4.5t5 -13.5v-19q0 -11 -4.5 -15.5t-17.5 -9.5l-39 -15
q2 -26 2 -56l-1 -38q-3 -95 -56 -161.5t-166 -66.5q-89 0 -141 42.5zM452 349q-13 63 -55 93t-100 30q-68 0 -113 -41.5t-48 -128.5l-1 -36l1 -40zM410 89.5q45 41.5 48 128.5q1 8 1 33q0 27 -1 38l-316 -123q15 -60 56.5 -89t98.5 -29q68 0 113 41.5z" />
    <glyph glyph-name="ugrave" unicode="&#xf9;" horiz-adv-x="585" 
d="M127 52q-51 62 -51 162v284q0 10 6 16t16 6h17q10 0 16 -6t6 -16v-279q0 -171 149 -171q72 0 114.5 45.5t42.5 125.5v279q0 10 6 16t16 6h17q10 0 16 -6t6 -16v-476q0 -10 -6 -16t-16 -6h-17q-10 0 -16 6t-6 16v47q-30 -39 -68.5 -59t-98.5 -20q-98 0 -149 62zM281 597
q-6 2 -14 8l-109 89q-5 5 -5 12q0 19 19 19h41q14 0 21 -3.5t16 -14.5l69 -83q5 -5 5 -13q0 -16 -16 -16h-10q-11 0 -17 2z" />
    <glyph glyph-name="uacute" unicode="&#xfa;" horiz-adv-x="585" 
d="M127 52q-51 62 -51 162v284q0 10 6 16t16 6h17q10 0 16 -6t6 -16v-279q0 -171 149 -171q72 0 114.5 45.5t42.5 125.5v279q0 10 6 16t16 6h17q10 0 16 -6t6 -16v-476q0 -10 -6 -16t-16 -6h-17q-10 0 -16 6t-6 16v47q-30 -39 -68.5 -59t-98.5 -20q-98 0 -149 62zM255 611
q0 8 5 13l69 83q9 11 16 14.5t21 3.5h41q19 0 19 -19q0 -7 -5 -12l-109 -89q-8 -6 -14 -8t-17 -2h-10q-16 0 -16 16z" />
    <glyph glyph-name="ucircumflex" unicode="&#xfb;" horiz-adv-x="585" 
d="M127 52q-51 62 -51 162v284q0 10 6 16t16 6h17q10 0 16 -6t6 -16v-279q0 -171 149 -171q72 0 114.5 45.5t42.5 125.5v279q0 10 6 16t16 6h17q10 0 16 -6t6 -16v-476q0 -10 -6 -16t-16 -6h-17q-10 0 -16 6t-6 16v47q-30 -39 -68.5 -59t-98.5 -20q-98 0 -149 62zM154 606
q0 8 12 20l87 85q9 9 15.5 11.5t16.5 2.5h10q9 0 16 -2.5t16 -11.5l87 -85q12 -12 12 -20q0 -11 -14 -11h-17q-7 0 -14 2t-11 5l-80 60l-80 -60q-4 -3 -11 -5t-14 -2h-17q-14 0 -14 11z" />
    <glyph glyph-name="udieresis" unicode="&#xfc;" horiz-adv-x="585" 
d="M127 52q-51 62 -51 162v284q0 10 6 16t16 6h17q10 0 16 -6t6 -16v-279q0 -171 149 -171q72 0 114.5 45.5t42.5 125.5v279q0 10 6 16t16 6h17q10 0 16 -6t6 -16v-476q0 -10 -6 -16t-16 -6h-17q-10 0 -16 6t-6 16v47q-30 -39 -68.5 -59t-98.5 -20q-98 0 -149 62zM178 633
q-6 6 -6 16v38q0 10 6 16.5t16 6.5h38q10 0 16.5 -6.5t6.5 -16.5v-38q0 -10 -6.5 -16t-16.5 -6h-38q-10 0 -16 6zM331 633q-6 6 -6 16v38q0 10 6 16.5t16 6.5h38q10 0 16.5 -6.5t6.5 -16.5v-38q0 -10 -6.5 -16t-16.5 -6h-38q-10 0 -16 6z" />
    <glyph glyph-name="yacute" unicode="&#xfd;" horiz-adv-x="532" 
d="M155 -184q-6 6 -6 14q0 5 6 20l77 180l-191 450q-6 15 -6 20q0 8 6 14t14 6h21q16 0 23 -15l168 -396l172 396q8 15 23 15h20q8 0 14 -6t6 -14q0 -5 -6 -20l-284 -655q-7 -15 -23 -15h-20q-8 0 -14 6zM233 611q0 8 5 13l69 83q9 11 16 14.5t21 3.5h41q19 0 19 -19
q0 -7 -5 -12l-109 -89q-8 -6 -14 -8t-17 -2h-10q-16 0 -16 16z" />
    <glyph glyph-name="thorn" unicode="&#xfe;" horiz-adv-x="581" 
d="M88 -184q-6 6 -6 16v856q0 10 6 16t16 6h17q10 0 16 -6t6 -16v-237q58 79 168 79q108 0 159.5 -68.5t54.5 -168.5q1 -10 1 -33t-1 -33q-3 -100 -54.5 -168.5t-159.5 -68.5q-109 0 -168 79v-237q0 -10 -6 -16t-16 -6h-17q-10 0 -16 6zM423.5 99.5q37.5 51.5 40.5 132.5
q1 10 1 28q0 93 -36 152.5t-124 59.5q-79 0 -119 -52.5t-43 -123.5l-1 -39l1 -39q1 -43 19 -81.5t54 -63.5t89 -25q81 0 118.5 51.5z" />
    <glyph glyph-name="ydieresis" unicode="&#xff;" horiz-adv-x="532" 
d="M155 -184q-6 6 -6 14q0 5 6 20l77 180l-191 450q-6 15 -6 20q0 8 6 14t14 6h21q16 0 23 -15l168 -396l172 396q8 15 23 15h20q8 0 14 -6t6 -14q0 -5 -6 -20l-284 -655q-7 -15 -23 -15h-20q-8 0 -14 6zM155 633q-6 6 -6 16v38q0 10 6 16.5t16 6.5h38q10 0 16.5 -6.5
t6.5 -16.5v-38q0 -10 -6.5 -16t-16.5 -6h-38q-10 0 -16 6zM308 633q-6 6 -6 16v38q0 10 6 16.5t16 6.5h38q10 0 16.5 -6.5t6.5 -16.5v-38q0 -10 -6.5 -16t-16.5 -6h-38q-10 0 -16 6z" />
    <glyph glyph-name="Amacron" unicode="&#x100;" horiz-adv-x="650" 
d="M30 6q-6 6 -6 14l2 11l253 649q8 20 29 20h34q21 0 29 -20l253 -649l2 -11q0 -8 -6 -14t-14 -6h-20q-9 0 -14.5 5t-7.5 10l-62 160h-354l-62 -160q-2 -5 -7.5 -10t-14.5 -5h-20q-8 0 -14 6zM172 235h306l-153 394zM209 756q-6 6 -6 16v22q0 10 6 16t16 6h199q10 0 16 -6
t6 -16v-22q0 -10 -6 -16t-16 -6h-199q-10 0 -16 6z" />
    <glyph glyph-name="amacron" unicode="&#x101;" horiz-adv-x="536" 
d="M132 10q-41 20 -65.5 54t-24.5 75q0 66 53.5 108t144.5 54l158 22v35q0 55 -33.5 84.5t-102.5 29.5q-51 0 -83.5 -20t-41.5 -48q-4 -12 -9.5 -16.5t-14.5 -4.5h-14q-9 0 -15.5 6.5t-6.5 15.5q0 22 20 51.5t62 51.5t103 22q107 0 152 -51t45 -124v-333q0 -10 -6 -16
t-16 -6h-17q-10 0 -16 6t-6 16v47q-22 -33 -64.5 -56t-112.5 -23q-48 0 -89 20zM351 96q47 48 47 138v34l-129 -18q-82 -11 -124 -38t-42 -68q0 -46 38.5 -71t89.5 -25q73 0 120 48zM145 628q-6 6 -6 16v14q0 10 6 16t16 6h199q10 0 16 -6t6 -16v-14q0 -10 -6 -16t-16 -6
h-199q-10 0 -16 6z" />
    <glyph glyph-name="Abreve" unicode="&#x102;" horiz-adv-x="650" 
d="M30 6q-6 6 -6 14l2 11l253 649q8 20 29 20h34q21 0 29 -20l253 -649l2 -11q0 -8 -6 -14t-14 -6h-20q-9 0 -14.5 5t-7.5 10l-62 160h-354l-62 -160q-2 -5 -7.5 -10t-14.5 -5h-20q-8 0 -14 6zM172 235h306l-153 394zM236 773q-26 33 -26 83q0 8 5 13.5t14 5.5h15
q9 0 14 -5.5t5 -13.5q0 -28 14 -47t48 -19t48 19t14 47q0 8 5 13.5t14 5.5h15q9 0 14 -5.5t5 -13.5q0 -50 -26 -83t-89 -33t-89 33z" />
    <glyph glyph-name="abreve" unicode="&#x103;" horiz-adv-x="536" 
d="M132 10q-41 20 -65.5 54t-24.5 75q0 66 53.5 108t144.5 54l158 22v35q0 55 -33.5 84.5t-102.5 29.5q-51 0 -83.5 -20t-41.5 -48q-4 -12 -9.5 -16.5t-14.5 -4.5h-14q-9 0 -15.5 6.5t-6.5 15.5q0 22 20 51.5t62 51.5t103 22q107 0 152 -51t45 -124v-333q0 -10 -6 -16
t-16 -6h-17q-10 0 -16 6t-6 16v47q-22 -33 -64.5 -56t-112.5 -23q-48 0 -89 20zM351 96q47 48 47 138v34l-129 -18q-82 -11 -124 -38t-42 -68q0 -46 38.5 -71t89.5 -25q73 0 120 48zM176 623q-25 33 -25 83q0 8 5 13.5t14 5.5h15q9 0 14 -5.5t5 -13.5q0 -66 57 -66t57 66
q0 8 5 13.5t14 5.5h15q9 0 14 -5.5t5 -13.5q0 -50 -25 -83t-85 -33t-85 33z" />
    <glyph glyph-name="Aogonek" unicode="&#x104;" horiz-adv-x="650" 
d="M476.5 -183q-35.5 37 -35.5 101q0 57 28.5 93t78.5 44l-3 8l-43 112h-354l-62 -160q-2 -5 -7.5 -10t-14.5 -5h-20q-8 0 -14 6t-6 14l2 11l253 649q8 20 29 20h34q21 0 29 -20l253 -649l2 -11q0 -8 -6 -14t-14 -6h-29q-34 0 -55 -22t-21 -60t21 -59.5t55 -21.5h15
q10 0 16 -6t6 -16v-13q0 -10 -6 -16t-16 -6h-19q-61 0 -96.5 37zM172 235h306l-153 394z" />
    <glyph glyph-name="aogonek" unicode="&#x105;" horiz-adv-x="536" 
d="M348 -185.5q-32 34.5 -32 95.5q0 44 25 77t57 48v3v31q-22 -33 -64.5 -56t-112.5 -23q-48 0 -89 20t-65.5 54t-24.5 75q0 66 53.5 108t144.5 54l158 22v35q0 55 -33.5 84.5t-102.5 29.5q-51 0 -83.5 -20t-41.5 -48q-4 -12 -9.5 -16.5t-14.5 -4.5h-14q-9 0 -15.5 6.5
t-6.5 15.5q0 22 20 51.5t62 51.5t103 22q107 0 152 -51t45 -124v-333q0 -13 -14 -21l-2 -1q-35 -16 -51 -36.5t-16 -53.5q0 -37 15 -55t41 -18h5q10 0 16 -6t6 -16v-13q0 -10 -6 -16t-16 -6h-9q-48 0 -80 34.5zM351 96q47 48 47 138v34l-129 -18q-82 -11 -124 -38t-42 -68
q0 -46 38.5 -71t89.5 -25q73 0 120 48z" />
    <glyph glyph-name="Cacute" unicode="&#x106;" horiz-adv-x="651" 
d="M136 63.5q-65 73.5 -70 197.5q-1 27 -1 88q0 62 1 90q5 124 70 197.5t195 73.5q89 0 148 -32.5t87.5 -82t31.5 -101.5v-2q0 -8 -6 -13t-15 -5h-20q-18 0 -22 21q-19 85 -69 120t-135 35q-94 0 -146 -53t-56 -163q-1 -27 -1 -83t1 -85q4 -110 56 -163t146 -53q85 0 135 35
t69 120q4 21 22 21h20q9 0 15.5 -5.5t5.5 -14.5q-3 -52 -31.5 -101.5t-87.5 -82t-148 -32.5q-130 0 -195 73.5zM298 766q0 8 5 13l69 83q9 11 16 14.5t21 3.5h46q19 0 19 -19q0 -7 -5 -12l-109 -89q-8 -6 -14 -8t-17 -2h-15q-16 0 -16 16z" />
    <glyph glyph-name="cacute" unicode="&#x107;" horiz-adv-x="536" 
d="M117 50.5q-57 60.5 -60 169.5l-1 40l1 40q3 109 60 169.5t161 60.5q66 0 112.5 -23.5t69.5 -60t25 -75.5q1 -9 -6 -15.5t-16 -6.5h-14q-10 0 -14.5 4.5t-9.5 16.5q-20 55 -56 78.5t-91 23.5q-72 0 -114.5 -43.5t-45.5 -133.5l-1 -35l1 -35q3 -90 45.5 -133.5t114.5 -43.5
q55 0 91 23.5t56 78.5q5 12 9.5 16.5t14.5 4.5h14q9 0 16 -6.5t6 -15.5q-2 -39 -25 -75.5t-69.5 -60t-112.5 -23.5q-104 0 -161 60.5zM235 611q0 8 5 13l69 83q9 11 16 14.5t21 3.5h41q19 0 19 -19q0 -7 -5 -12l-109 -89q-8 -6 -14 -8t-17 -2h-10q-16 0 -16 16z" />
    <glyph glyph-name="Ccircumflex" unicode="&#x108;" horiz-adv-x="651" 
d="M136 63.5q-65 73.5 -70 197.5q-1 27 -1 88q0 62 1 90q5 124 70 197.5t195 73.5q89 0 148 -32.5t87.5 -82t31.5 -101.5v-2q0 -8 -6 -13t-15 -5h-20q-18 0 -22 21q-19 85 -69 120t-135 35q-94 0 -146 -53t-56 -163q-1 -27 -1 -83t1 -85q4 -110 56 -163t146 -53q85 0 135 35
t69 120q4 21 22 21h20q9 0 15.5 -5.5t5.5 -14.5q-3 -52 -31.5 -101.5t-87.5 -82t-148 -32.5q-130 0 -195 73.5zM190 761q0 8 12 20l87 85q9 9 16 11.5t16 2.5h10q10 0 16.5 -2.5t15.5 -11.5l87 -85q12 -12 12 -20q0 -11 -14 -11h-17q-7 0 -14 2t-11 5l-80 60l-80 -60
q-4 -3 -11 -5t-14 -2h-17q-14 0 -14 11z" />
    <glyph glyph-name="ccircumflex" unicode="&#x109;" horiz-adv-x="536" 
d="M117 50.5q-57 60.5 -60 169.5l-1 40l1 40q3 109 60 169.5t161 60.5q66 0 112.5 -23.5t69.5 -60t25 -75.5q1 -9 -6 -15.5t-16 -6.5h-14q-10 0 -14.5 4.5t-9.5 16.5q-20 55 -56 78.5t-91 23.5q-72 0 -114.5 -43.5t-45.5 -133.5l-1 -35l1 -35q3 -90 45.5 -133.5t114.5 -43.5
q55 0 91 23.5t56 78.5q5 12 9.5 16.5t14.5 4.5h14q9 0 16 -6.5t6 -15.5q-2 -39 -25 -75.5t-69.5 -60t-112.5 -23.5q-104 0 -161 60.5zM135 616q0 8 12 20l87 85q9 9 15.5 11.5t16.5 2.5h10q9 0 16 -2.5t16 -11.5l87 -85q12 -12 12 -20q0 -11 -14 -11h-17q-7 0 -14 2t-11 5
l-80 60l-80 -60q-4 -3 -11 -5t-14 -2h-17q-14 0 -14 11z" />
    <glyph glyph-name="Cdotaccent" unicode="&#x10a;" horiz-adv-x="651" 
d="M136 63.5q-65 73.5 -70 197.5q-1 27 -1 88q0 62 1 90q5 124 70 197.5t195 73.5q89 0 148 -32.5t87.5 -82t31.5 -101.5v-2q0 -8 -6 -13t-15 -5h-20q-18 0 -22 21q-19 85 -69 120t-135 35q-94 0 -146 -53t-56 -163q-1 -27 -1 -83t1 -85q4 -110 56 -163t146 -53q85 0 135 35
t69 120q4 21 22 21h20q9 0 15.5 -5.5t5.5 -14.5q-3 -52 -31.5 -101.5t-87.5 -82t-148 -32.5q-130 0 -195 73.5zM285 756q-6 6 -6 16v48q0 10 6 16.5t16 6.5h48q10 0 16.5 -6.5t6.5 -16.5v-48q0 -10 -6.5 -16t-16.5 -6h-48q-10 0 -16 6z" />
    <glyph glyph-name="cdotaccent" unicode="&#x10b;" horiz-adv-x="536" 
d="M117 50.5q-57 60.5 -60 169.5l-1 40l1 40q3 109 60 169.5t161 60.5q66 0 112.5 -23.5t69.5 -60t25 -75.5q1 -9 -6 -15.5t-16 -6.5h-14q-10 0 -14.5 4.5t-9.5 16.5q-20 55 -56 78.5t-91 23.5q-72 0 -114.5 -43.5t-45.5 -133.5l-1 -35l1 -35q3 -90 45.5 -133.5t114.5 -43.5
q55 0 91 23.5t56 78.5q5 12 9.5 16.5t14.5 4.5h14q9 0 16 -6.5t6 -15.5q-2 -39 -25 -75.5t-69.5 -60t-112.5 -23.5q-104 0 -161 60.5zM231 623q-6 6 -6 16v48q0 10 6 16.5t16 6.5h48q10 0 16.5 -6.5t6.5 -16.5v-48q0 -10 -6.5 -16t-16.5 -6h-48q-10 0 -16 6z" />
    <glyph glyph-name="Ccaron" unicode="&#x10c;" horiz-adv-x="651" 
d="M136 63.5q-65 73.5 -70 197.5q-1 27 -1 88q0 62 1 90q5 124 70 197.5t195 73.5q89 0 148 -32.5t87.5 -82t31.5 -101.5v-2q0 -8 -6 -13t-15 -5h-20q-18 0 -22 21q-19 85 -69 120t-135 35q-94 0 -146 -53t-56 -163q-1 -27 -1 -83t1 -85q4 -110 56 -163t146 -53q85 0 135 35
t69 120q4 21 22 21h20q9 0 15.5 -5.5t5.5 -14.5q-3 -52 -31.5 -101.5t-87.5 -82t-148 -32.5q-130 0 -195 73.5zM305 752.5q-7 2.5 -16 11.5l-87 85q-12 12 -12 20q0 11 14 11h17q7 0 14 -2t11 -5l80 -60l80 60q4 3 11 5t14 2h17q14 0 14 -11q0 -8 -12 -20l-87 -85
q-9 -9 -15.5 -11.5t-16.5 -2.5h-10q-9 0 -16 2.5z" />
    <glyph glyph-name="ccaron" unicode="&#x10d;" horiz-adv-x="536" 
d="M117 50.5q-57 60.5 -60 169.5l-1 40l1 40q3 109 60 169.5t161 60.5q66 0 112.5 -23.5t69.5 -60t25 -75.5q1 -9 -6 -15.5t-16 -6.5h-14q-10 0 -14.5 4.5t-9.5 16.5q-20 55 -56 78.5t-91 23.5q-72 0 -114.5 -43.5t-45.5 -133.5l-1 -35l1 -35q3 -90 45.5 -133.5t114.5 -43.5
q55 0 91 23.5t56 78.5q5 12 9.5 16.5t14.5 4.5h14q9 0 16 -6.5t6 -15.5q-2 -39 -25 -75.5t-69.5 -60t-112.5 -23.5q-104 0 -161 60.5zM249.5 597.5q-6.5 2.5 -15.5 11.5l-87 85q-12 12 -12 20q0 11 14 11h17q7 0 14 -2t11 -5l80 -60l80 60q4 3 11 5t14 2h17q14 0 14 -11
q0 -8 -12 -20l-87 -85q-9 -9 -16 -11.5t-16 -2.5h-10q-10 0 -16.5 2.5z" />
    <glyph glyph-name="Dcaron" unicode="&#x10e;" horiz-adv-x="677" 
d="M100 6q-6 6 -6 16v655q0 10 6 16.5t16 6.5h213q104 0 164.5 -30.5t86 -89.5t27.5 -150q1 -30 1 -79q0 -50 -1 -80q-2 -96 -27.5 -154.5t-84.5 -87.5t-161 -29h-218q-10 0 -16 6zM329 60q80 0 126 21.5t66.5 68t22.5 126.5q1 30 1 75q0 44 -1 74q-2 112 -52.5 163.5
t-167.5 51.5h-167v-580h172zM309 752.5q-7 2.5 -16 11.5l-87 85q-12 12 -12 20q0 11 14 11h17q7 0 14 -2t11 -5l80 -60l80 60q4 3 11 5t14 2h17q14 0 14 -11q0 -8 -12 -20l-87 -85q-9 -9 -15.5 -11.5t-16.5 -2.5h-10q-9 0 -16 2.5z" />
    <glyph glyph-name="dcaron" unicode="&#x10f;" horiz-adv-x="580" 
d="M109.5 60.5q-51.5 70.5 -54.5 171.5l-1 28l1 28q3 101 54.5 171.5t159.5 70.5q109 0 168 -79v237q0 10 6 16t16 6h17q10 0 16 -6t6 -16v-666q0 -10 -6 -16t-16 -6h-17q-10 0 -16 6t-6 16v47q-58 -79 -168 -79q-108 0 -159.5 70.5zM394 100.5q40 52.5 43 123.5q1 10 1 39
t-1 39q-1 43 -19 81.5t-54 63.5t-89 25q-81 0 -118.5 -51.5t-40.5 -132.5l-1 -28q0 -93 36 -152.5t124 -59.5q79 0 119 52.5zM555 556q-4 6 -2 15l17 112q3 27 25 27h45q7 0 11 -5t4 -11q0 -9 -4 -18l-40 -105q-5 -11 -10.5 -16t-15.5 -5h-18q-8 0 -12 6z" />
    <glyph glyph-name="Dcroat" unicode="&#x110;" horiz-adv-x="683" 
d="M106 6q-6 6 -6 16v300h-63q-10 0 -16 6t-6 16v16q0 10 6 16t16 6h63v295q0 10 6 16.5t16 6.5h213q104 0 164.5 -30.5t86 -89.5t27.5 -150q1 -30 1 -79q0 -50 -1 -80q-2 -96 -27.5 -154.5t-84.5 -87.5t-161 -29h-218q-10 0 -16 6zM335 60q80 0 126 21.5t66.5 68
t22.5 126.5q1 30 1 75q0 44 -1 74q-2 112 -52.5 163.5t-167.5 51.5h-167v-258h150q10 0 16 -6t6 -16v-16q0 -10 -6 -16t-16 -6h-150v-262h172z" />
    <glyph glyph-name="dcroat" unicode="&#x111;" horiz-adv-x="580" 
d="M106 62.5q-47 72.5 -50 169.5l-1 28q0 105 44 187.5t171 82.5q109 0 168 -79v120h-58q-10 0 -16 6t-6 16v14q0 10 6 16t16 6h58v59q0 10 6 16t16 6h17q10 0 16 -6t6 -16v-59h58q10 0 16 -6t6 -16v-14q0 -10 -6 -16t-16 -6h-58v-549q0 -10 -6 -16t-16 -6h-17q-10 0 -16 6
t-6 16v47q-58 -79 -168 -79q-117 0 -164 72.5zM395 100.5q40 52.5 43 123.5q1 10 1 39t-1 39q-1 43 -19 81.5t-54 63.5t-89 25q-81 0 -118.5 -51.5t-40.5 -132.5l-1 -28l1 -28q3 -81 40.5 -132.5t118.5 -51.5q79 0 119 52.5z" />
    <glyph glyph-name="Emacron" unicode="&#x112;" horiz-adv-x="592" 
d="M100 6q-6 6 -6 16v655q0 10 6 16.5t16 6.5h390q11 0 17 -6t6 -17v-15q0 -10 -6.5 -16t-16.5 -6h-349v-255h327q11 0 17 -6t6 -17v-15q0 -10 -6.5 -16t-16.5 -6h-327v-265h357q11 0 17 -6t6 -17v-15q0 -10 -6.5 -16t-16.5 -6h-398q-10 0 -16 6zM180 756q-6 6 -6 16v22
q0 10 6 16t16 6h199q10 0 16 -6t6 -16v-22q0 -10 -6 -16t-16 -6h-199q-10 0 -16 6z" />
    <glyph glyph-name="emacron" unicode="&#x113;" horiz-adv-x="546" 
d="M121 52.5q-58 62.5 -66 167.5l-1 40l1 40q8 104 65.5 167t153.5 63q104 0 162.5 -69t58.5 -189v-15q0 -10 -6.5 -16t-16.5 -6h-356v-10q2 -47 21.5 -87.5t54.5 -65t82 -24.5q55 0 89.5 21.5t49.5 43.5q9 12 13.5 15t16.5 3h16q9 0 15 -5t6 -13q0 -21 -26.5 -50.5
t-73.5 -51t-106 -21.5q-95 0 -153 62.5zM434 291v4q0 77 -43.5 127t-116.5 50t-115.5 -50t-42.5 -127v-4h318zM159 628q-6 6 -6 16v14q0 10 6 16t16 6h199q10 0 16 -6t6 -16v-14q0 -10 -6 -16t-16 -6h-199q-10 0 -16 6z" />
    <glyph glyph-name="Ebreve" unicode="&#x114;" horiz-adv-x="592" 
d="M100 6q-6 6 -6 16v655q0 10 6 16.5t16 6.5h390q11 0 17 -6t6 -17v-15q0 -10 -6.5 -16t-16.5 -6h-349v-255h327q11 0 17 -6t6 -17v-15q0 -10 -6.5 -16t-16.5 -6h-327v-265h357q11 0 17 -6t6 -17v-15q0 -10 -6.5 -16t-16.5 -6h-398q-10 0 -16 6zM207 773q-26 33 -26 83
q0 8 5 13.5t14 5.5h15q9 0 14 -5.5t5 -13.5q0 -28 14 -47t48 -19t48 19t14 47q0 8 5 13.5t14 5.5h15q9 0 14 -5.5t5 -13.5q0 -50 -26 -83t-89 -33t-89 33z" />
    <glyph glyph-name="ebreve" unicode="&#x115;" horiz-adv-x="546" 
d="M121 52.5q-58 62.5 -66 167.5l-1 40l1 40q8 104 65.5 167t153.5 63q104 0 162.5 -69t58.5 -189v-15q0 -10 -6.5 -16t-16.5 -6h-356v-10q2 -47 21.5 -87.5t54.5 -65t82 -24.5q55 0 89.5 21.5t49.5 43.5q9 12 13.5 15t16.5 3h16q9 0 15 -5t6 -13q0 -21 -26.5 -50.5
t-73.5 -51t-106 -21.5q-95 0 -153 62.5zM434 291v4q0 77 -43.5 127t-116.5 50t-115.5 -50t-42.5 -127v-4h318zM189 623q-25 33 -25 83q0 8 5 13.5t14 5.5h15q9 0 14 -5.5t5 -13.5q0 -66 57 -66t57 66q0 8 5 13.5t14 5.5h15q9 0 14 -5.5t5 -13.5q0 -50 -25 -83t-85 -33
t-85 33z" />
    <glyph glyph-name="Edotaccent" unicode="&#x116;" horiz-adv-x="592" 
d="M100 6q-6 6 -6 16v655q0 10 6 16.5t16 6.5h390q11 0 17 -6t6 -17v-15q0 -10 -6.5 -16t-16.5 -6h-349v-255h327q11 0 17 -6t6 -17v-15q0 -10 -6.5 -16t-16.5 -6h-327v-265h357q11 0 17 -6t6 -17v-15q0 -10 -6.5 -16t-16.5 -6h-398q-10 0 -16 6zM255 756q-6 6 -6 16v48
q0 10 6 16.5t16 6.5h48q10 0 16.5 -6.5t6.5 -16.5v-48q0 -10 -6.5 -16t-16.5 -6h-48q-10 0 -16 6z" />
    <glyph glyph-name="edotaccent" unicode="&#x117;" horiz-adv-x="546" 
d="M121 52.5q-58 62.5 -66 167.5l-1 40l1 40q8 104 65.5 167t153.5 63q104 0 162.5 -69t58.5 -189v-15q0 -10 -6.5 -16t-16.5 -6h-356v-10q2 -47 21.5 -87.5t54.5 -65t82 -24.5q55 0 89.5 21.5t49.5 43.5q9 12 13.5 15t16.5 3h16q9 0 15 -5t6 -13q0 -21 -26.5 -50.5
t-73.5 -51t-106 -21.5q-95 0 -153 62.5zM434 291v4q0 77 -43.5 127t-116.5 50t-115.5 -50t-42.5 -127v-4h318zM234 623q-6 6 -6 16v48q0 10 6 16.5t16 6.5h48q10 0 16.5 -6.5t6.5 -16.5v-48q0 -10 -6.5 -16t-16.5 -6h-48q-10 0 -16 6z" />
    <glyph glyph-name="Eogonek" unicode="&#x118;" horiz-adv-x="592" 
d="M399.5 -183q-35.5 37 -35.5 101q0 49 21 82h-269q-10 0 -16 6t-6 16v655q0 10 6 16.5t16 6.5h390q11 0 17 -6t6 -17v-15q0 -10 -6.5 -16t-16.5 -6h-349v-255h327q11 0 17 -6t6 -17v-15q0 -10 -6.5 -16t-16.5 -6h-327v-265h357q11 0 17 -6t6 -17v-15q0 -10 -6.5 -16
t-16.5 -6h-21q-31 -2 -50 -24t-19 -58q0 -38 21 -59.5t55 -21.5h15q10 0 16 -6t6 -16v-13q0 -10 -6 -16t-16 -6h-19q-61 0 -96.5 37z" />
    <glyph glyph-name="eogonek" unicode="&#x119;" horiz-adv-x="547" 
d="M229.5 -183q-35.5 37 -35.5 101q0 49 19 80q-69 19 -110 77.5t-47 144.5l-1 40l1 40q8 104 65.5 167t153.5 63q104 0 162.5 -69t58.5 -189v-15q0 -10 -6.5 -16t-16.5 -6h-356v-10q2 -47 21.5 -87.5t54.5 -65t82 -24.5q55 0 89.5 21.5t49.5 43.5q9 12 13.5 15t16.5 3h16
q9 0 15 -5t6 -13q0 -18 -20 -42.5t-57 -46t-84 -30.5q-32 -6 -49 -24t-17 -52q0 -38 21 -59.5t55 -21.5h15q10 0 16 -6t6 -16v-13q0 -10 -6 -16t-16 -6h-19q-61 0 -96.5 37zM434 291v4q0 77 -43.5 127t-116.5 50t-115.5 -50t-42.5 -127v-4h318z" />
    <glyph glyph-name="Ecaron" unicode="&#x11a;" horiz-adv-x="592" 
d="M100 6q-6 6 -6 16v655q0 10 6 16.5t16 6.5h390q11 0 17 -6t6 -17v-15q0 -10 -6.5 -16t-16.5 -6h-349v-255h327q11 0 17 -6t6 -17v-15q0 -10 -6.5 -16t-16.5 -6h-327v-265h357q11 0 17 -6t6 -17v-15q0 -10 -6.5 -16t-16.5 -6h-398q-10 0 -16 6zM275 752.5q-7 2.5 -16 11.5
l-87 85q-12 12 -12 20q0 11 14 11h17q7 0 14 -2t11 -5l80 -60l80 60q4 3 11 5t14 2h17q14 0 14 -11q0 -8 -12 -20l-87 -85q-9 -9 -15.5 -11.5t-16.5 -2.5h-10q-9 0 -16 2.5z" />
    <glyph glyph-name="ecaron" unicode="&#x11b;" horiz-adv-x="546" 
d="M121 52.5q-58 62.5 -66 167.5l-1 40l1 40q8 104 65.5 167t153.5 63q104 0 162.5 -69t58.5 -189v-15q0 -10 -6.5 -16t-16.5 -6h-356v-10q2 -47 21.5 -87.5t54.5 -65t82 -24.5q55 0 89.5 21.5t49.5 43.5q9 12 13.5 15t16.5 3h16q9 0 15 -5t6 -13q0 -21 -26.5 -50.5
t-73.5 -51t-106 -21.5q-95 0 -153 62.5zM434 291v4q0 77 -43.5 127t-116.5 50t-115.5 -50t-42.5 -127v-4h318zM252.5 597.5q-6.5 2.5 -15.5 11.5l-87 85q-12 12 -12 20q0 11 14 11h17q7 0 14 -2t11 -5l80 -60l80 60q4 3 11 5t14 2h17q14 0 14 -11q0 -8 -12 -20l-87 -85
q-9 -9 -16 -11.5t-16 -2.5h-10q-10 0 -16.5 2.5z" />
    <glyph glyph-name="Gcircumflex" unicode="&#x11c;" horiz-adv-x="664" 
d="M140 62q-69 72 -73 193q-1 30 -1 95t1 95q4 121 73 193t194 72q85 0 143 -32t86.5 -75.5t30.5 -77.5v-2q0 -8 -6 -13t-15 -5h-22q-9 0 -13 4t-8 16q-17 53 -65.5 89t-130.5 36q-93 0 -146.5 -51t-57.5 -159q-1 -30 -1 -90t1 -90q4 -108 57.5 -159t146.5 -51t150 53
t57 157v51h-174q-10 0 -16 6.5t-6 16.5v14q0 10 6 16.5t16 6.5h214q11 0 17 -6t6 -17v-88q0 -80 -32 -141t-93 -95t-145 -34q-125 0 -194 72zM203 761q0 8 12 20l87 85q9 9 16 11.5t16 2.5h10q10 0 16.5 -2.5t15.5 -11.5l87 -85q12 -12 12 -20q0 -11 -14 -11h-17q-7 0 -14 2
t-11 5l-80 60l-80 -60q-4 -3 -11 -5t-14 -2h-17q-14 0 -14 11z" />
    <glyph glyph-name="gcircumflex" unicode="&#x11d;" horiz-adv-x="581" 
d="M150 -193q-47 27 -65.5 61.5t-18.5 60.5q0 9 6.5 15t15.5 6h14q9 0 14.5 -4.5t9.5 -16.5q31 -91 144 -91q86 0 127 35.5t41 126.5v69q-58 -79 -168 -79q-108 0 -159.5 70.5t-54.5 171.5l-1 28l1 28q3 101 54.5 171.5t159.5 70.5q109 0 168 -79v46q0 10 6 16.5t16 6.5h16
q10 0 16.5 -6.5t6.5 -16.5v-487q0 -107 -50 -168.5t-174 -61.5q-78 0 -125 27zM395 100.5q40 52.5 43 123.5q1 10 1 36t-1 36q-3 71 -43 123.5t-119 52.5q-81 0 -118.5 -51.5t-40.5 -132.5l-1 -28l1 -28q3 -81 40.5 -132.5t118.5 -51.5q79 0 119 52.5zM141 606q0 8 12 20
l87 85q9 9 15.5 11.5t16.5 2.5h10q9 0 16 -2.5t16 -11.5l87 -85q12 -12 12 -20q0 -11 -14 -11h-17q-7 0 -14 2t-11 5l-80 60l-80 -60q-4 -3 -11 -5t-14 -2h-17q-14 0 -14 11z" />
    <glyph glyph-name="Gbreve" unicode="&#x11e;" horiz-adv-x="664" 
d="M140 62q-69 72 -73 193q-1 30 -1 95t1 95q4 121 73 193t194 72q85 0 143 -32t86.5 -75.5t30.5 -77.5v-2q0 -8 -6 -13t-15 -5h-22q-9 0 -13 4t-8 16q-17 53 -65.5 89t-130.5 36q-93 0 -146.5 -51t-57.5 -159q-1 -30 -1 -90t1 -90q4 -108 57.5 -159t146.5 -51t150 53
t57 157v51h-174q-10 0 -16 6.5t-6 16.5v14q0 10 6 16.5t16 6.5h214q11 0 17 -6t6 -17v-88q0 -80 -32 -141t-93 -95t-145 -34q-125 0 -194 72zM250 773q-26 33 -26 83q0 8 5 13.5t14 5.5h15q9 0 14 -5.5t5 -13.5q0 -28 14 -47t48 -19t48 19t14 47q0 8 5 13.5t14 5.5h15
q9 0 14 -5.5t5 -13.5q0 -50 -26 -83t-89 -33t-89 33z" />
    <glyph glyph-name="gbreve" unicode="&#x11f;" horiz-adv-x="581" 
d="M150 -193q-47 27 -65.5 61.5t-18.5 60.5q0 9 6.5 15t15.5 6h14q9 0 14.5 -4.5t9.5 -16.5q31 -91 144 -91q86 0 127 35.5t41 126.5v69q-58 -79 -168 -79q-108 0 -159.5 70.5t-54.5 171.5l-1 28l1 28q3 101 54.5 171.5t159.5 70.5q109 0 168 -79v46q0 10 6 16.5t16 6.5h16
q10 0 16.5 -6.5t6.5 -16.5v-487q0 -107 -50 -168.5t-174 -61.5q-78 0 -125 27zM395 100.5q40 52.5 43 123.5q1 10 1 36t-1 36q-3 71 -43 123.5t-119 52.5q-81 0 -118.5 -51.5t-40.5 -132.5l-1 -28l1 -28q3 -81 40.5 -132.5t118.5 -51.5q79 0 119 52.5zM192 623
q-25 33 -25 83q0 8 5 13.5t14 5.5h15q9 0 14 -5.5t5 -13.5q0 -66 57 -66t57 66q0 8 5 13.5t14 5.5h15q9 0 14 -5.5t5 -13.5q0 -50 -25 -83t-85 -33t-85 33z" />
    <glyph glyph-name="Gdotaccent" unicode="&#x120;" horiz-adv-x="664" 
d="M140 62q-69 72 -73 193q-1 30 -1 95t1 95q4 121 73 193t194 72q85 0 143 -32t86.5 -75.5t30.5 -77.5v-2q0 -8 -6 -13t-15 -5h-22q-9 0 -13 4t-8 16q-17 53 -65.5 89t-130.5 36q-93 0 -146.5 -51t-57.5 -159q-1 -30 -1 -90t1 -90q4 -108 57.5 -159t146.5 -51t150 53
t57 157v51h-174q-10 0 -16 6.5t-6 16.5v14q0 10 6 16.5t16 6.5h214q11 0 17 -6t6 -17v-88q0 -80 -32 -141t-93 -95t-145 -34q-125 0 -194 72zM299 756q-6 6 -6 16v48q0 10 6 16.5t16 6.5h48q10 0 16.5 -6.5t6.5 -16.5v-48q0 -10 -6.5 -16t-16.5 -6h-48q-10 0 -16 6z" />
    <glyph glyph-name="gdotaccent" unicode="&#x121;" horiz-adv-x="581" 
d="M150 -193q-47 27 -65.5 61.5t-18.5 60.5q0 9 6.5 15t15.5 6h14q9 0 14.5 -4.5t9.5 -16.5q31 -91 144 -91q86 0 127 35.5t41 126.5v69q-58 -79 -168 -79q-108 0 -159.5 70.5t-54.5 171.5l-1 28l1 28q3 101 54.5 171.5t159.5 70.5q109 0 168 -79v46q0 10 6 16.5t16 6.5h16
q10 0 16.5 -6.5t6.5 -16.5v-487q0 -107 -50 -168.5t-174 -61.5q-78 0 -125 27zM395 100.5q40 52.5 43 123.5q1 10 1 36t-1 36q-3 71 -43 123.5t-119 52.5q-81 0 -118.5 -51.5t-40.5 -132.5l-1 -28l1 -28q3 -81 40.5 -132.5t118.5 -51.5q79 0 119 52.5zM237 623q-6 6 -6 16
v48q0 10 6 16.5t16 6.5h48q10 0 16.5 -6.5t6.5 -16.5v-48q0 -10 -6.5 -16t-16.5 -6h-48q-10 0 -16 6z" />
    <glyph glyph-name="Gcommaaccent" unicode="&#x122;" horiz-adv-x="664" 
d="M140 62q-69 72 -73 193q-1 30 -1 95t1 95q4 121 73 193t194 72q85 0 143 -32t86.5 -75.5t30.5 -77.5v-2q0 -8 -6 -13t-15 -5h-22q-9 0 -13 4t-8 16q-17 53 -65.5 89t-130.5 36q-93 0 -146.5 -51t-57.5 -159q-1 -30 -1 -90t1 -90q4 -108 57.5 -159t146.5 -51t150 53
t57 157v51h-174q-10 0 -16 6.5t-6 16.5v14q0 10 6 16.5t16 6.5h214q11 0 17 -6t6 -17v-88q0 -80 -32 -141t-93 -95t-145 -34q-125 0 -194 72zM284 -204q-4 6 -2 15l17 112q3 27 25 27h45q6 0 10.5 -5t4.5 -11q0 -9 -4 -18l-40 -105q-5 -11 -10.5 -16t-15.5 -5h-18
q-8 0 -12 6z" />
    <glyph glyph-name="gcommaaccent" unicode="&#x123;" horiz-adv-x="581" 
d="M337 749q4 -6 2 -15l-17 -112q-3 -27 -25 -27h-45q-6 0 -10.5 5t-4.5 11q0 9 4 18l40 105q5 11 10.5 16t15.5 5h18q8 0 12 -6zM150 -193q-47 27 -65.5 61.5t-18.5 60.5q0 9 6.5 15t15.5 6h14q9 0 14.5 -4.5t9.5 -16.5q31 -91 144 -91q86 0 127 35.5t41 126.5v69
q-58 -79 -168 -79q-108 0 -159.5 70.5t-54.5 171.5l-1 28l1 28q3 101 54.5 171.5t159.5 70.5q109 0 168 -79v46q0 10 6 16.5t16 6.5h16q10 0 16.5 -6.5t6.5 -16.5v-487q0 -107 -50 -168.5t-174 -61.5q-78 0 -125 27zM395 100.5q40 52.5 43 123.5q1 10 1 36t-1 36
q-3 71 -43 123.5t-119 52.5q-81 0 -118.5 -51.5t-40.5 -132.5l-1 -28l1 -28q3 -81 40.5 -132.5t118.5 -51.5q79 0 119 52.5z" />
    <glyph glyph-name="Hcircumflex" unicode="&#x124;" horiz-adv-x="700" 
d="M100 6q-6 6 -6 16v655q0 10 6 16.5t16 6.5h18q11 0 17 -6t6 -17v-292h386v292q0 10 6 16.5t16 6.5h18q11 0 17 -6t6 -17v-655q0 -10 -6.5 -16t-16.5 -6h-18q-10 0 -16 6t-6 16v303h-386v-303q0 -10 -6.5 -16t-16.5 -6h-18q-10 0 -16 6zM214 761q0 8 12 20l87 85
q9 9 16 11.5t16 2.5h10q10 0 16.5 -2.5t15.5 -11.5l87 -85q12 -12 12 -20q0 -11 -14 -11h-17q-7 0 -14 2t-11 5l-80 60l-80 -60q-4 -3 -11 -5t-14 -2h-17q-14 0 -14 11z" />
    <glyph glyph-name="hcircumflex" unicode="&#x125;" horiz-adv-x="591" 
d="M88 6q-6 6 -6 16v666q0 10 6 16t16 6h17q10 0 16 -6t6 -16v-237q30 39 68.5 59t99.5 20q98 0 151 -62.5t53 -161.5v-284q0 -10 -6 -16t-16 -6h-17q-10 0 -16 6t-6 16v279q0 81 -39.5 126t-113.5 45q-72 0 -115 -45.5t-43 -125.5v-279q0 -10 -6 -16t-16 -6h-17
q-10 0 -16 6zM162 761q0 8 12 20l87 85q9 9 15.5 11.5t16.5 2.5h10q9 0 16 -2.5t16 -11.5l87 -85q12 -12 12 -20q0 -11 -14 -11h-17q-7 0 -14 2t-11 5l-80 60l-80 -60q-4 -3 -11 -5t-14 -2h-17q-14 0 -14 11z" />
    <glyph glyph-name="Hbar" unicode="&#x126;" horiz-adv-x="700" 
d="M683 565q6 -6 6 -16v-14q0 -10 -6 -16t-16 -6h-61v-491q0 -10 -6.5 -16t-16.5 -6h-18q-10 0 -16 6t-6 16v303h-386v-303q0 -10 -6.5 -16t-16.5 -6h-18q-10 0 -16 6t-6 16v491h-51q-10 0 -16 6t-6 16v14q0 10 6 16t16 6h51v106q0 10 6 16.5t16 6.5h18q11 0 17 -6t6 -17
v-106h386v106q0 10 6 16.5t16 6.5h18q11 0 17 -6t6 -17v-106h61q10 0 16 -6zM543 385v128h-386v-128h386z" />
    <glyph glyph-name="hbar" unicode="&#x127;" horiz-adv-x="590" 
d="M87 6q-6 6 -6 16v549h-58q-10 0 -16 6t-6 16v14q0 10 6 16t16 6h58v59q0 10 6 16t16 6h17q10 0 16 -6t6 -16v-59h58q10 0 16 -6t6 -16v-14q0 -10 -6 -16t-16 -6h-58v-120q30 39 68.5 59t99.5 20q98 0 151 -62.5t53 -161.5v-284q0 -10 -6 -16t-16 -6h-17q-10 0 -16 6
t-6 16v279q0 81 -39.5 126t-113.5 45q-72 0 -115 -45.5t-43 -125.5v-279q0 -10 -6 -16t-16 -6h-17q-10 0 -16 6z" />
    <glyph glyph-name="Itilde" unicode="&#x128;" horiz-adv-x="251" 
d="M100 6q-6 6 -6 16v656q0 10 6 16t16 6h19q10 0 16 -6t6 -16v-656q0 -10 -6 -16t-16 -6h-19q-10 0 -16 6zM146 749.5q-12 4.5 -32 15.5q-24 14 -36 14q-8 0 -12.5 -3.5t-9.5 -11.5q-8 -14 -19 -14h-20q-7 0 -11.5 5t-4.5 11q0 29 22 53.5t52 24.5q17 0 30.5 -5t30.5 -15
q2 -1 14 -7.5t23 -6.5q8 0 12.5 3.5t9.5 11.5q4 8 8 11.5t11 3.5h20q7 0 11.5 -5t4.5 -11q0 -29 -23 -54t-52 -25q-17 0 -29 4.5z" />
    <glyph glyph-name="itilde" unicode="&#x129;" horiz-adv-x="223" 
d="M87 6q-6 6 -6 16v476q0 10 6 16t16 6h17q10 0 16 -6t6 -16v-476q0 -10 -6 -16t-16 -6h-17q-10 0 -16 6zM130.5 595q-11.5 5 -28.5 15q-8 5 -16.5 9.5t-16.5 4.5t-12.5 -3.5t-9.5 -11.5q-8 -14 -19 -14h-20q-7 0 -11.5 5t-4.5 11q0 29 20.5 51t50.5 22q17 0 29.5 -5
t27.5 -15q8 -5 16.5 -9.5t17.5 -4.5q8 0 12.5 3.5t9.5 11.5q4 8 8 11.5t11 3.5h20q7 0 11.5 -5t4.5 -11q0 -29 -21.5 -51.5t-50.5 -22.5q-17 0 -28.5 5z" />
    <glyph glyph-name="Imacron" unicode="&#x12a;" horiz-adv-x="251" 
d="M100 6q-6 6 -6 16v656q0 10 6 16t16 6h19q10 0 16 -6t6 -16v-656q0 -10 -6 -16t-16 -6h-19q-10 0 -16 6zM10 756q-6 6 -6 16v22q0 10 6 16t16 6h199q10 0 16 -6t6 -16v-22q0 -10 -6 -16t-16 -6h-199q-10 0 -16 6z" />
    <glyph glyph-name="imacron" unicode="&#x12b;" horiz-adv-x="223" 
d="M87 6q-6 6 -6 16v476q0 10 6 16t16 6h17q10 0 16 -6t6 -16v-476q0 -10 -6 -16t-16 -6h-17q-10 0 -16 6zM-4 628q-6 6 -6 16v14q0 10 6 16t16 6h199q10 0 16 -6t6 -16v-14q0 -10 -6 -16t-16 -6h-199q-10 0 -16 6z" />
    <glyph glyph-name="Ibreve" unicode="&#x12c;" horiz-adv-x="251" 
d="M100 6q-6 6 -6 16v656q0 10 6 16t16 6h19q10 0 16 -6t6 -16v-656q0 -10 -6 -16t-16 -6h-19q-10 0 -16 6zM37 773q-26 33 -26 83q0 8 5 13.5t14 5.5h15q9 0 14 -5.5t5 -13.5q0 -28 14 -47t48 -19t48 19t14 47q0 8 5 13.5t14 5.5h15q9 0 14 -5.5t5 -13.5q0 -50 -26 -83
t-89 -33t-89 33z" />
    <glyph glyph-name="ibreve" unicode="&#x12d;" horiz-adv-x="223" 
d="M87 6q-6 6 -6 16v476q0 10 6 16t16 6h17q10 0 16 -6t6 -16v-476q0 -10 -6 -16t-16 -6h-17q-10 0 -16 6zM26 623q-25 33 -25 83q0 8 5 13.5t14 5.5h15q9 0 14 -5.5t5 -13.5q0 -66 57 -66t57 66q0 8 5 13.5t14 5.5h15q9 0 14 -5.5t5 -13.5q0 -50 -25 -83t-85 -33t-85 33z
" />
    <glyph glyph-name="Iogonek" unicode="&#x12e;" horiz-adv-x="269" 
d="M37.5 -183q-35.5 37 -35.5 101q0 58 29.5 94t80.5 43v9v10v604q0 10 6 16t16 6h19q10 0 16 -6t6 -16v-656q0 -10 -6 -16t-16 -6h-15q-34 0 -55 -22t-21 -60t21 -59.5t55 -21.5h15q10 0 16 -6t6 -16v-13q0 -10 -6 -16t-16 -6h-19q-61 0 -96.5 37z" />
    <glyph glyph-name="iogonek" unicode="&#x12f;" horiz-adv-x="244" 
d="M97 633q-6 6 -6 16v38q0 10 6 16.5t16 6.5h38q10 0 16.5 -6.5t6.5 -16.5v-38q0 -10 -6.5 -16t-16.5 -6h-38q-10 0 -16 6zM35.5 -183q-35.5 37 -35.5 101q0 55 27 91t75 45v4v6v434q0 10 6 16t16 6h17q10 0 16 -6t6 -16v-476q0 -10 -6 -16t-16 -6h-5q-34 0 -55 -22
t-21 -60t21 -59.5t55 -21.5h15q10 0 16 -6t6 -16v-13q0 -10 -6 -16t-16 -6h-19q-61 0 -96.5 37z" />
    <glyph glyph-name="Idotaccent" unicode="&#x130;" horiz-adv-x="251" 
d="M100 6q-6 6 -6 16v656q0 10 6 16t16 6h19q10 0 16 -6t6 -16v-656q0 -10 -6 -16t-16 -6h-19q-10 0 -16 6zM85 756q-6 6 -6 16v48q0 10 6 16.5t16 6.5h48q10 0 16.5 -6.5t6.5 -16.5v-48q0 -10 -6.5 -16t-16.5 -6h-48q-10 0 -16 6z" />
    <glyph glyph-name="dotlessi" unicode="&#x131;" horiz-adv-x="223" 
d="M87 6q-6 6 -6 16v476q0 10 6 16t16 6h17q10 0 16 -6t6 -16v-476q0 -10 -6 -16t-16 -6h-17q-10 0 -16 6z" />
    <glyph glyph-name="IJ" unicode="&#x132;" horiz-adv-x="589" 
d="M100 6q-6 6 -6 16v656q0 10 6 16t16 6h19q10 0 16 -6t6 -16v-656q0 -10 -6 -16t-16 -6h-19q-10 0 -16 6zM243 -4q-6 6 -6 16v15q0 10 6 16.5t16 6.5q86 0 132.5 56.5t46.5 149.5v422q0 10 6 16t16 6h18q11 0 17 -6t6 -17v-422q0 -120 -63.5 -192.5t-178.5 -72.5
q-10 0 -16 6z" />
    <glyph glyph-name="ij" unicode="&#x133;" horiz-adv-x="456" 
d="M76 633q-6 6 -6 16v38q0 10 6 16.5t16 6.5h38q10 0 16.5 -6.5t6.5 -16.5v-38q0 -10 -6.5 -16t-16.5 -6h-38q-10 0 -16 6zM87 6q-6 6 -6 16v476q0 10 6 16t16 6h17q10 0 16 -6t6 -16v-476q0 -10 -6 -16t-16 -6h-17q-10 0 -16 6zM308 633q-6 6 -6 16v38q0 10 6 16.5t16 6.5
h38q10 0 16.5 -6.5t6.5 -16.5v-38q0 -10 -6.5 -16t-16.5 -6h-38q-10 0 -16 6zM203 -184q-6 6 -6 16v14q0 10 6 16t16 6h4q55 0 72.5 28t17.5 82v520q0 10 6 16t16 6h17q10 0 16 -6t6 -16v-520q0 -79 -33 -123.5t-118 -44.5h-4q-10 0 -16 6z" />
    <glyph glyph-name="Jcircumflex" unicode="&#x134;" horiz-adv-x="618" 
d="M116.5 41.5q-67.5 51.5 -71.5 152.5q0 10 5.5 16t15.5 6h20q10 0 15.5 -6t6.5 -15q6 -74 55.5 -109.5t124.5 -35.5q86 0 132.5 56.5t46.5 149.5v384h-369q-10 0 -16 6t-6 16v16q0 10 6 16t16 6h409q11 0 17 -6t6 -17v-422q0 -120 -63.5 -192.5t-178.5 -72.5
q-104 0 -171.5 51.5zM167 761q0 8 12 20l87 85q9 9 16 11.5t16 2.5h10q10 0 16.5 -2.5t15.5 -11.5l87 -85q12 -12 12 -20q0 -11 -14 -11h-17q-7 0 -14 2t-11 5l-80 60l-80 -60q-4 -3 -11 -5t-14 -2h-17q-14 0 -14 11z" />
    <glyph glyph-name="jcircumflex" unicode="&#x135;" horiz-adv-x="269" 
d="M16 -184q-6 6 -6 16v14q0 10 6 16t16 6h4q55 0 72.5 28t17.5 82v484h-84q-10 0 -16 6t-6 16v14q0 10 6 16t16 6h123q10 0 16 -6t6 -16v-520q0 -79 -33 -123.5t-118 -44.5h-4q-10 0 -16 6zM-20 606q0 8 12 20l87 85q9 9 15.5 11.5t16.5 2.5h10q9 0 16 -2.5t16 -11.5
l87 -85q12 -12 12 -20q0 -11 -14 -11h-17q-7 0 -14 2t-11 5l-80 60l-80 -60q-4 -3 -11 -5t-14 -2h-17q-14 0 -14 11z" />
    <glyph glyph-name="Kcommaaccent" unicode="&#x136;" horiz-adv-x="575" 
d="M100 6q-6 6 -6 16v655q0 10 6 16.5t16 6.5h18q11 0 17 -6t6 -17v-260l303 268q8 6 16.5 10.5t21.5 4.5h16q8 0 14 -6t6 -14t-5 -13l-339 -302l360 -331q6 -6 6 -14t-6 -14t-14 -6h-17q-13 0 -21.5 4.5t-16.5 10.5l-324 296v-289q0 -10 -6.5 -16t-16.5 -6h-18q-10 0 -16 6
zM240 -204q-4 6 -2 15l17 112q3 27 25 27h45q6 0 10.5 -5t4.5 -11q0 -9 -4 -18l-40 -105q-5 -11 -10.5 -16t-15.5 -5h-18q-8 0 -12 6z" />
    <glyph glyph-name="kcommaaccent" unicode="&#x137;" horiz-adv-x="487" 
d="M88 6q-6 6 -6 16v666q0 10 6 16t16 6h17q10 0 16 -6t6 -16v-354l223 169q16 12 22 14.5t20 2.5h19q9 0 14.5 -5.5t5.5 -14.5q0 -11 -13 -20l-253 -192l278 -248q13 -12 13 -20q0 -9 -5.5 -14.5t-14.5 -5.5h-16q-15 0 -22 2.5t-20 14.5l-251 223v-218q0 -10 -6 -16t-16 -6
h-17q-10 0 -16 6zM182 -204q-4 6 -2 15l17 112q3 27 25 27h45q7 0 11 -5t4 -11q0 -9 -4 -18l-40 -105q-5 -11 -10.5 -16t-15.5 -5h-18q-8 0 -12 6z" />
    <glyph glyph-name="kgreenlandic" unicode="&#x138;" horiz-adv-x="488" 
d="M87 6q-6 6 -6 16v476q0 10 6 16t16 6h17q10 0 16 -6t6 -16v-190l231 195q16 12 22 14.5t20 2.5h16q9 0 14.5 -5.5t5.5 -14.5q0 -11 -13 -20l-260 -220l280 -220q13 -10 13 -20q0 -9 -5.5 -14.5t-14.5 -5.5h-18q-14 0 -21 3t-21 14l-249 195v-190q0 -10 -6 -16t-16 -6h-17
q-10 0 -16 6z" />
    <glyph glyph-name="Lacute" unicode="&#x139;" horiz-adv-x="548" 
d="M100 6q-6 6 -6 16v656q0 10 6 16t16 6h19q10 0 16 -6t6 -16v-618h345q11 0 17 -6t6 -17v-15q0 -10 -6.5 -16t-16.5 -6h-386q-10 0 -16 6zM97 766q0 8 5 13l69 83q9 11 16 14.5t21 3.5h46q19 0 19 -19q0 -7 -5 -12l-109 -89q-8 -6 -14 -8t-17 -2h-15q-16 0 -16 16z" />
    <glyph glyph-name="lacute" unicode="&#x13a;" horiz-adv-x="225" 
d="M88 6q-6 6 -6 16v666q0 10 6 16t16 6h17q10 0 16 -6t6 -16v-666q0 -10 -6 -16t-16 -6h-17q-10 0 -16 6zM88 766q0 8 5 13l69 83q9 11 16 14.5t21 3.5h41q19 0 19 -19q0 -7 -5 -12l-109 -89q-8 -6 -14 -8t-17 -2h-10q-16 0 -16 16z" />
    <glyph glyph-name="Lcommaaccent" unicode="&#x13b;" horiz-adv-x="548" 
d="M100 6q-6 6 -6 16v656q0 10 6 16t16 6h19q10 0 16 -6t6 -16v-618h345q11 0 17 -6t6 -17v-15q0 -10 -6.5 -16t-16.5 -6h-386q-10 0 -16 6zM244 -204q-4 6 -2 15l17 112q3 27 25 27h45q6 0 10.5 -5t4.5 -11q0 -9 -4 -18l-40 -105q-5 -11 -10.5 -16t-15.5 -5h-18q-8 0 -12 6
z" />
    <glyph glyph-name="lcommaaccent" unicode="&#x13c;" horiz-adv-x="225" 
d="M88 6q-6 6 -6 16v666q0 10 6 16t16 6h17q10 0 16 -6t6 -16v-666q0 -10 -6 -16t-16 -6h-17q-10 0 -16 6zM51 -204q-4 6 -2 15l17 112q3 27 25 27h45q7 0 11 -5t4 -11q0 -9 -4 -18l-40 -105q-5 -11 -10.5 -16t-15.5 -5h-18q-8 0 -12 6z" />
    <glyph glyph-name="Lcaron" unicode="&#x13d;" horiz-adv-x="548" 
d="M100 6q-6 6 -6 16v656q0 10 6 16t16 6h19q10 0 16 -6t6 -16v-618h345q11 0 17 -6t6 -17v-15q0 -10 -6.5 -16t-16.5 -6h-386q-10 0 -16 6zM261 556q-4 6 -2 15l17 112q3 27 25 27h45q6 0 10.5 -5t4.5 -11q0 -9 -4 -18l-40 -105q-5 -11 -10.5 -16t-15.5 -5h-18q-8 0 -12 6z
" />
    <glyph glyph-name="lcaron" unicode="&#x13e;" horiz-adv-x="250" 
d="M88 6q-6 6 -6 16v666q0 10 6 16t16 6h17q10 0 16 -6t6 -16v-666q0 -10 -6 -16t-16 -6h-17q-10 0 -16 6zM200 556q-4 6 -2 15l17 112q3 27 25 27h45q7 0 11 -5t4 -11q0 -9 -4 -18l-40 -105q-5 -11 -10.5 -16t-15.5 -5h-18q-8 0 -12 6z" />
    <glyph glyph-name="Ldot" unicode="&#x13f;" horiz-adv-x="548" 
d="M100 6q-6 6 -6 16v656q0 10 6 16t16 6h19q10 0 16 -6t6 -16v-618h345q11 0 17 -6t6 -17v-15q0 -10 -6.5 -16t-16.5 -6h-386q-10 0 -16 6zM285 319q-6 6 -6 16v48q0 10 6 16.5t16 6.5h48q10 0 16.5 -6.5t6.5 -16.5v-48q0 -10 -6.5 -16t-16.5 -6h-48q-10 0 -16 6z" />
    <glyph glyph-name="ldot" unicode="&#x140;" horiz-adv-x="256" 
d="M88 6q-6 6 -6 16v666q0 10 6 16t16 6h17q10 0 16 -6t6 -16v-666q0 -10 -6 -16t-16 -6h-17q-10 0 -16 6zM199 319q-6 6 -6 16v48q0 10 6 16.5t16 6.5h48q10 0 16.5 -6.5t6.5 -16.5v-48q0 -10 -6.5 -16t-16.5 -6h-48q-10 0 -16 6z" />
    <glyph glyph-name="Lslash" unicode="&#x141;" horiz-adv-x="556" 
d="M108 6q-6 6 -6 16v270l-58 -22q-8 -3 -13 -3q-9 0 -14 4.5t-5 13.5v19q0 11 4.5 15.5t17.5 9.5l68 26v323q0 10 6 16t16 6h19q10 0 16 -6t6 -16v-298l145 56q8 3 13 3q9 0 14 -4.5t5 -13.5v-19q0 -11 -4.5 -15.5t-17.5 -9.5l-155 -60v-257h346q10 0 16 -6t6 -16v-16
q0 -10 -6 -16t-16 -6h-387q-10 0 -16 6z" />
    <glyph glyph-name="lslash" unicode="&#x142;" horiz-adv-x="247" 
d="M100 6q-6 6 -6 16v296l-38 -14q-8 -3 -13 -3q-9 0 -14 4.5t-5 13.5v19q0 11 4.5 15.5t17.5 9.5l48 18v307q0 10 6 16t16 6h17q10 0 16 -6t6 -16v-284l38 15q7 3 13 3q9 0 14 -4.5t5 -13.5v-19q0 -11 -4.5 -15.5t-17.5 -9.5l-48 -19v-319q0 -10 -6 -16t-16 -6h-17
q-10 0 -16 6z" />
    <glyph glyph-name="Nacute" unicode="&#x143;" horiz-adv-x="684" 
d="M100 6q-6 6 -6 16v655q0 10 6 16.5t16 6.5h21q13 0 21 -12l369 -564v553q0 10 6 16.5t16 6.5h18q11 0 17 -6t6 -17v-654q0 -10 -6 -16.5t-16 -6.5h-22q-13 0 -21 12l-368 562v-552q0 -10 -6.5 -16t-16.5 -6h-18q-10 0 -16 6zM314 766q0 8 5 13l69 83q9 11 16 14.5t21 3.5
h46q19 0 19 -19q0 -7 -5 -12l-109 -89q-8 -6 -14 -8t-17 -2h-15q-16 0 -16 16z" />
    <glyph glyph-name="nacute" unicode="&#x144;" horiz-adv-x="590" 
d="M87 6q-6 6 -6 16v476q0 10 6 16t16 6h17q10 0 16 -6t6 -16v-47q30 39 68.5 59t99.5 20q98 0 151 -62.5t53 -161.5v-284q0 -10 -6 -16t-16 -6h-17q-10 0 -16 6t-6 16v279q0 81 -39.5 126t-113.5 45q-72 0 -115 -45.5t-43 -125.5v-279q0 -10 -6 -16t-16 -6h-17q-10 0 -16 6
zM261 611q0 8 5 13l69 83q9 11 16 14.5t21 3.5h41q19 0 19 -19q0 -7 -5 -12l-109 -89q-8 -6 -14 -8t-17 -2h-10q-16 0 -16 16z" />
    <glyph glyph-name="Ncommaaccent" unicode="&#x145;" horiz-adv-x="684" 
d="M100 6q-6 6 -6 16v655q0 10 6 16.5t16 6.5h21q13 0 21 -12l369 -564v553q0 10 6 16.5t16 6.5h18q11 0 17 -6t6 -17v-654q0 -10 -6 -16.5t-16 -6.5h-22q-13 0 -21 12l-368 562v-552q0 -10 -6.5 -16t-16.5 -6h-18q-10 0 -16 6zM283 -204q-4 6 -2 15l17 112q3 27 25 27h45
q6 0 10.5 -5t4.5 -11q0 -9 -4 -18l-40 -105q-5 -11 -10.5 -16t-15.5 -5h-18q-8 0 -12 6z" />
    <glyph glyph-name="ncommaaccent" unicode="&#x146;" horiz-adv-x="590" 
d="M87 6q-6 6 -6 16v476q0 10 6 16t16 6h17q10 0 16 -6t6 -16v-47q30 39 68.5 59t99.5 20q98 0 151 -62.5t53 -161.5v-284q0 -10 -6 -16t-16 -6h-17q-10 0 -16 6t-6 16v279q0 81 -39.5 126t-113.5 45q-72 0 -115 -45.5t-43 -125.5v-279q0 -10 -6 -16t-16 -6h-17q-10 0 -16 6
zM240 -204q-4 6 -2 15l17 112q3 27 25 27h45q7 0 11 -5t4 -11q0 -9 -4 -18l-40 -105q-5 -11 -10.5 -16t-15.5 -5h-18q-8 0 -12 6z" />
    <glyph glyph-name="Ncaron" unicode="&#x147;" horiz-adv-x="684" 
d="M100 6q-6 6 -6 16v655q0 10 6 16.5t16 6.5h21q13 0 21 -12l369 -564v553q0 10 6 16.5t16 6.5h18q11 0 17 -6t6 -17v-654q0 -10 -6 -16.5t-16 -6.5h-22q-13 0 -21 12l-368 562v-552q0 -10 -6.5 -16t-16.5 -6h-18q-10 0 -16 6zM321 752.5q-7 2.5 -16 11.5l-87 85
q-12 12 -12 20q0 11 14 11h17q7 0 14 -2t11 -5l80 -60l80 60q4 3 11 5t14 2h17q14 0 14 -11q0 -8 -12 -20l-87 -85q-9 -9 -15.5 -11.5t-16.5 -2.5h-10q-9 0 -16 2.5z" />
    <glyph glyph-name="ncaron" unicode="&#x148;" horiz-adv-x="590" 
d="M87 6q-6 6 -6 16v476q0 10 6 16t16 6h17q10 0 16 -6t6 -16v-47q30 39 68.5 59t99.5 20q98 0 151 -62.5t53 -161.5v-284q0 -10 -6 -16t-16 -6h-17q-10 0 -16 6t-6 16v279q0 81 -39.5 126t-113.5 45q-72 0 -115 -45.5t-43 -125.5v-279q0 -10 -6 -16t-16 -6h-17q-10 0 -16 6
zM275.5 597.5q-6.5 2.5 -15.5 11.5l-87 85q-12 12 -12 20q0 11 14 11h17q7 0 14 -2t11 -5l80 -60l80 60q4 3 11 5t14 2h17q14 0 14 -11q0 -8 -12 -20l-87 -85q-9 -9 -16 -11.5t-16 -2.5h-10q-10 0 -16.5 2.5z" />
    <glyph glyph-name="napostrophe" unicode="&#x149;" horiz-adv-x="590" 
d="M87 6q-6 6 -6 16v476q0 10 6 16t16 6h17q10 0 16 -6t6 -16v-47q30 39 68.5 59t99.5 20q98 0 151 -62.5t53 -161.5v-284q0 -10 -6 -16t-16 -6h-17q-10 0 -16 6t-6 16v279q0 81 -39.5 126t-113.5 45q-72 0 -115 -45.5t-43 -125.5v-279q0 -10 -6 -16t-16 -6h-17q-10 0 -16 6
zM91 588q-4 6 -2 15l17 112q3 27 25 27h45q7 0 11 -5t4 -11q0 -9 -4 -18l-40 -105q-5 -11 -10.5 -16t-15.5 -5h-18q-8 0 -12 6z" />
    <glyph glyph-name="Eng" unicode="&#x14a;" horiz-adv-x="684" 
d="M419 -219q-6 6 -6 16v16q0 10 6 16t16 6h4q52 0 70 27.5t18 80.5v65l-370 566v-552q0 -10 -6.5 -16t-16.5 -6h-18q-10 0 -16 6t-6 16v655q0 10 6 16.5t16 6.5h21q13 0 21 -12l369 -564v553q0 10 6 16.5t16 6.5h18q11 0 17 -6t6 -17v-734q0 -80 -32 -124t-119 -44h-4
q-10 0 -16 6z" />
    <glyph glyph-name="eng" unicode="&#x14b;" horiz-adv-x="590" 
d="M343 -219q-6 6 -6 16v14q0 10 6 16t16 6h4q55 0 72.5 28t17.5 82v358q0 81 -39.5 126t-113.5 45q-72 0 -115 -45.5t-43 -125.5v-279q0 -10 -6 -16t-16 -6h-17q-10 0 -16 6t-6 16v476q0 10 6 16t16 6h17q10 0 16 -6t6 -16v-47q30 39 68.5 59t99.5 20q98 0 151 -62.5
t53 -161.5v-363q0 -79 -33 -123.5t-118 -44.5h-4q-10 0 -16 6z" />
    <glyph glyph-name="Omacron" unicode="&#x14c;" horiz-adv-x="662" 
d="M67 266q-1 30 -1 84t1 84q4 136 74 206t190 70t190 -70t74 -206q2 -60 2 -84t-2 -84q-7 -276 -264 -276t-264 276zM474.5 104.5q53.5 54.5 57.5 166.5q2 60 2 79t-2 79q-4 112 -58 166.5t-143 54.5t-143 -54.5t-58 -166.5q-1 -30 -1 -79t1 -79q4 -112 57.5 -166.5
t143.5 -54.5t143.5 54.5zM215 756q-6 6 -6 16v22q0 10 6 16t16 6h199q10 0 16 -6t6 -16v-22q0 -10 -6 -16t-16 -6h-199q-10 0 -16 6z" />
    <glyph glyph-name="omacron" unicode="&#x14d;" horiz-adv-x="558" 
d="M117.5 53.5q-57.5 63.5 -60.5 164.5l-1 42l1 42q3 101 60.5 164.5t161.5 63.5t161.5 -63.5t60.5 -164.5q1 -10 1 -42t-1 -42q-3 -101 -60.5 -164.5t-161.5 -63.5t-161.5 63.5zM393.5 93.5q43.5 45.5 46.5 129.5q1 10 1 37t-1 37q-3 84 -46.5 129.5t-114.5 45.5
t-114.5 -45.5t-46.5 -129.5l-1 -37l1 -37q3 -84 46.5 -129.5t114.5 -45.5t114.5 45.5zM164 628q-6 6 -6 16v14q0 10 6 16t16 6h199q10 0 16 -6t6 -16v-14q0 -10 -6 -16t-16 -6h-199q-10 0 -16 6z" />
    <glyph glyph-name="Obreve" unicode="&#x14e;" horiz-adv-x="662" 
d="M67 266q-1 30 -1 84t1 84q4 136 74 206t190 70t190 -70t74 -206q2 -60 2 -84t-2 -84q-7 -276 -264 -276t-264 276zM474.5 104.5q53.5 54.5 57.5 166.5q2 60 2 79t-2 79q-4 112 -58 166.5t-143 54.5t-143 -54.5t-58 -166.5q-1 -30 -1 -79t1 -79q4 -112 57.5 -166.5
t143.5 -54.5t143.5 54.5zM242 773q-26 33 -26 83q0 8 5 13.5t14 5.5h15q9 0 14 -5.5t5 -13.5q0 -28 14 -47t48 -19t48 19t14 47q0 8 5 13.5t14 5.5h15q9 0 14 -5.5t5 -13.5q0 -50 -26 -83t-89 -33t-89 33z" />
    <glyph glyph-name="obreve" unicode="&#x14f;" horiz-adv-x="558" 
d="M117.5 53.5q-57.5 63.5 -60.5 164.5l-1 42l1 42q3 101 60.5 164.5t161.5 63.5t161.5 -63.5t60.5 -164.5q1 -10 1 -42t-1 -42q-3 -101 -60.5 -164.5t-161.5 -63.5t-161.5 63.5zM393.5 93.5q43.5 45.5 46.5 129.5q1 10 1 37t-1 37q-3 84 -46.5 129.5t-114.5 45.5
t-114.5 -45.5t-46.5 -129.5l-1 -37l1 -37q3 -84 46.5 -129.5t114.5 -45.5t114.5 45.5zM194 623q-25 33 -25 83q0 8 5 13.5t14 5.5h15q9 0 14 -5.5t5 -13.5q0 -66 57 -66t57 66q0 8 5 13.5t14 5.5h15q9 0 14 -5.5t5 -13.5q0 -50 -25 -83t-85 -33t-85 33z" />
    <glyph glyph-name="Ohungarumlaut" unicode="&#x150;" horiz-adv-x="662" 
d="M67 266q-1 30 -1 84t1 84q4 136 74 206t190 70t190 -70t74 -206q2 -60 2 -84t-2 -84q-7 -276 -264 -276t-264 276zM474.5 104.5q53.5 54.5 57.5 166.5q2 60 2 79t-2 79q-4 112 -58 166.5t-143 54.5t-143 -54.5t-58 -166.5q-1 -30 -1 -79t1 -79q4 -112 57.5 -166.5
t143.5 -54.5t143.5 54.5zM228 766q0 5 5 15l36 80q5 10 13.5 14.5t23.5 4.5h40q9 0 14.5 -5t5.5 -14q0 -7 -6 -13l-71 -84q-12 -14 -30 -14h-15q-16 0 -16 16zM376 766q0 5 5 15l36 80q5 10 13.5 14.5t23.5 4.5h40q9 0 14.5 -5t5.5 -14q0 -7 -6 -13l-71 -84q-12 -14 -30 -14
h-15q-16 0 -16 16z" />
    <glyph glyph-name="ohungarumlaut" unicode="&#x151;" horiz-adv-x="558" 
d="M117.5 53.5q-57.5 63.5 -60.5 164.5l-1 42l1 42q3 101 60.5 164.5t161.5 63.5t161.5 -63.5t60.5 -164.5q1 -10 1 -42t-1 -42q-3 -101 -60.5 -164.5t-161.5 -63.5t-161.5 63.5zM393.5 93.5q43.5 45.5 46.5 129.5q1 10 1 37t-1 37q-3 84 -46.5 129.5t-114.5 45.5
t-114.5 -45.5t-46.5 -129.5l-1 -37l1 -37q3 -84 46.5 -129.5t114.5 -45.5t114.5 45.5zM174 611q0 5 5 15l36 80q5 10 13.5 14.5t23.5 4.5h35q9 0 14.5 -5t5.5 -14q0 -7 -6 -13l-71 -84q-12 -14 -30 -14h-10q-16 0 -16 16zM317 611q0 5 5 15l36 80q5 10 13.5 14.5t23.5 4.5
h35q9 0 14.5 -5t5.5 -14q0 -7 -6 -13l-71 -84q-12 -14 -30 -14h-10q-16 0 -16 16z" />
    <glyph glyph-name="OE" unicode="&#x152;" horiz-adv-x="900" 
d="M182 29q-59 29 -84.5 87.5t-27.5 154.5l-1 80l1 79q2 91 27.5 150t86 89.5t164.5 30.5h467q11 0 17 -6t6 -17v-15q0 -10 -6.5 -16t-16.5 -6h-309v-255h287q11 0 17 -6t6 -17v-15q0 -10 -6.5 -16t-16.5 -6h-287v-265h317q11 0 17 -6t6 -17v-15q0 -10 -6.5 -16t-16.5 -6
h-480q-102 0 -161 29zM443 60v580h-90q-117 0 -167.5 -51.5t-52.5 -163.5l-1 -74l1 -75q2 -80 22.5 -126.5t66.5 -68t126 -21.5h95z" />
    <glyph glyph-name="oe" unicode="&#x153;" horiz-adv-x="931" 
d="M118.5 53.5q-57.5 63.5 -60.5 164.5l-1 42l1 42q3 101 60.5 164.5t161.5 63.5q70 0 119 -29.5t75 -82.5q28 53 75.5 82.5t112.5 29.5q104 0 162.5 -69t58.5 -189v-15q0 -10 -6.5 -16t-16.5 -6h-356v-10q2 -47 21.5 -87.5t54.5 -65t82 -24.5q52 0 85.5 21.5t48.5 43.5
q9 12 13.5 15t16.5 3h16q9 0 15 -5t6 -13q0 -21 -26 -50.5t-72 -51t-103 -21.5q-64 0 -112 29t-76 82q-26 -53 -75 -82t-119 -29q-104 0 -161.5 63.5zM394.5 93.5q43.5 45.5 46.5 129.5q1 10 1 37t-1 37q-3 84 -46.5 129.5t-114.5 45.5t-114.5 -45.5t-46.5 -129.5l-1 -37
l1 -37q3 -84 46.5 -129.5t114.5 -45.5t114.5 45.5zM822 291v4q0 77 -43.5 127t-116.5 50t-115.5 -50t-42.5 -127v-4h318z" />
    <glyph glyph-name="Racute" unicode="&#x154;" horiz-adv-x="640" 
d="M100 6q-6 6 -6 16v655q0 10 6 16.5t16 6.5h233q108 0 169 -51t61 -151q0 -79 -39 -127.5t-112 -65.5l161 -274q3 -6 3 -11q0 -8 -6 -14t-14 -6h-12q-15 0 -22.5 6.5t-15.5 20.5l-159 269h-206v-274q0 -10 -6.5 -16t-16.5 -6h-18q-10 0 -16 6zM344 356q87 0 129.5 35.5
t42.5 106.5t-42.5 106.5t-129.5 35.5h-187v-284h187zM272 766q0 8 5 13l69 83q9 11 16 14.5t21 3.5h46q19 0 19 -19q0 -7 -5 -12l-109 -89q-8 -6 -14 -8t-17 -2h-15q-16 0 -16 16z" />
    <glyph glyph-name="racute" unicode="&#x155;" horiz-adv-x="348" 
d="M87 6q-6 6 -6 16v475q0 10 6 16.5t16 6.5h16q10 0 16.5 -6.5t6.5 -16.5v-46q36 69 136 69h37q10 0 16 -6t6 -16v-14q0 -10 -6 -16t-16 -6h-43q-60 0 -95 -35t-35 -95v-310q0 -10 -6.5 -16t-16.5 -6h-16q-10 0 -16 6zM161 611q0 8 5 13l69 83q9 11 16 14.5t21 3.5h41
q19 0 19 -19q0 -7 -5 -12l-109 -89q-8 -6 -14 -8t-17 -2h-10q-16 0 -16 16z" />
    <glyph glyph-name="Rcommaaccent" unicode="&#x156;" horiz-adv-x="640" 
d="M100 6q-6 6 -6 16v655q0 10 6 16.5t16 6.5h233q108 0 169 -51t61 -151q0 -79 -39 -127.5t-112 -65.5l161 -274q3 -6 3 -11q0 -8 -6 -14t-14 -6h-12q-15 0 -22.5 6.5t-15.5 20.5l-159 269h-206v-274q0 -10 -6.5 -16t-16.5 -6h-18q-10 0 -16 6zM344 356q87 0 129.5 35.5
t42.5 106.5t-42.5 106.5t-129.5 35.5h-187v-284h187zM261 -204q-4 6 -2 15l17 112q3 27 25 27h45q6 0 10.5 -5t4.5 -11q0 -9 -4 -18l-40 -105q-5 -11 -10.5 -16t-15.5 -5h-18q-8 0 -12 6z" />
    <glyph glyph-name="rcommaaccent" unicode="&#x157;" horiz-adv-x="348" 
d="M87 6q-6 6 -6 16v475q0 10 6 16.5t16 6.5h16q10 0 16.5 -6.5t6.5 -16.5v-46q36 69 136 69h37q10 0 16 -6t6 -16v-14q0 -10 -6 -16t-16 -6h-43q-60 0 -95 -35t-35 -95v-310q0 -10 -6.5 -16t-16.5 -6h-16q-10 0 -16 6zM43 -204q-4 6 -2 15l17 112q3 27 25 27h45q7 0 11 -5
t4 -11q0 -9 -4 -18l-40 -105q-5 -11 -10.5 -16t-15.5 -5h-18q-8 0 -12 6z" />
    <glyph glyph-name="Rcaron" unicode="&#x158;" horiz-adv-x="640" 
d="M100 6q-6 6 -6 16v655q0 10 6 16.5t16 6.5h233q108 0 169 -51t61 -151q0 -79 -39 -127.5t-112 -65.5l161 -274q3 -6 3 -11q0 -8 -6 -14t-14 -6h-12q-15 0 -22.5 6.5t-15.5 20.5l-159 269h-206v-274q0 -10 -6.5 -16t-16.5 -6h-18q-10 0 -16 6zM344 356q87 0 129.5 35.5
t42.5 106.5t-42.5 106.5t-129.5 35.5h-187v-284h187zM279 752.5q-7 2.5 -16 11.5l-87 85q-12 12 -12 20q0 11 14 11h17q7 0 14 -2t11 -5l80 -60l80 60q4 3 11 5t14 2h17q14 0 14 -11q0 -8 -12 -20l-87 -85q-9 -9 -15.5 -11.5t-16.5 -2.5h-10q-9 0 -16 2.5z" />
    <glyph glyph-name="rcaron" unicode="&#x159;" horiz-adv-x="348" 
d="M87 6q-6 6 -6 16v475q0 10 6 16.5t16 6.5h16q10 0 16.5 -6.5t6.5 -16.5v-46q36 69 136 69h37q10 0 16 -6t6 -16v-14q0 -10 -6 -16t-16 -6h-43q-60 0 -95 -35t-35 -95v-310q0 -10 -6.5 -16t-16.5 -6h-16q-10 0 -16 6zM164.5 597.5q-6.5 2.5 -15.5 11.5l-87 85
q-12 12 -12 20q0 11 14 11h17q7 0 14 -2t11 -5l80 -60l80 60q4 3 11 5t14 2h17q14 0 14 -11q0 -8 -12 -20l-87 -85q-9 -9 -16 -11.5t-16 -2.5h-10q-10 0 -16.5 2.5z" />
    <glyph glyph-name="Sacute" unicode="&#x15a;" horiz-adv-x="605" 
d="M168.5 15.5q-57.5 25.5 -88 66.5t-32.5 88q0 8 6 14t15 6h20q18 0 22 -20q7 -48 55 -84t138 -36q95 0 141.5 34.5t46.5 96.5q0 38 -22.5 62.5t-65.5 43t-130 46.5q-77 25 -120.5 49t-64.5 59t-21 89q0 51 27.5 92t79.5 64.5t124 23.5q74 0 127 -26.5t80 -67t29 -81.5
q0 -8 -5.5 -14t-15.5 -6h-20q-7 0 -14 4.5t-8 15.5q-6 50 -53.5 82.5t-119.5 32.5q-77 0 -122.5 -30t-45.5 -90q0 -39 20.5 -64.5t61.5 -44t121 -44.5q82 -26 128 -50t69.5 -58t23.5 -88q0 -90 -67 -140.5t-184 -50.5q-78 0 -135.5 25.5zM275 766q0 8 5 13l69 83
q9 11 16 14.5t21 3.5h46q19 0 19 -19q0 -7 -5 -12l-109 -89q-8 -6 -14 -8t-17 -2h-15q-16 0 -16 16z" />
    <glyph glyph-name="sacute" unicode="&#x15b;" horiz-adv-x="492" 
d="M136.5 12q-44.5 22 -67 50t-22.5 45q0 9 7 14.5t15 5.5h15q7 0 11.5 -2.5t10.5 -10.5q22 -31 53.5 -48.5t86.5 -17.5q62 0 100 23.5t38 67.5q0 27 -15.5 44t-50 29.5t-102.5 28.5q-89 20 -121.5 55t-32.5 89q0 37 20.5 70t61 54t97.5 21q60 0 101.5 -20.5t62 -47.5
t20.5 -44q0 -9 -6.5 -14.5t-15.5 -5.5h-15q-14 0 -22 13q-20 30 -45.5 45.5t-79.5 15.5q-58 0 -88 -24t-30 -63q0 -24 12 -40t45 -29.5t96 -27.5q93 -21 131 -56t38 -93q0 -41 -23 -75t-68 -54t-108 -20q-65 0 -109.5 22zM205 611q0 8 5 13l69 83q9 11 16 14.5t21 3.5h41
q19 0 19 -19q0 -7 -5 -12l-109 -89q-8 -6 -14 -8t-17 -2h-10q-16 0 -16 16z" />
    <glyph glyph-name="Scircumflex" unicode="&#x15c;" horiz-adv-x="605" 
d="M168.5 15.5q-57.5 25.5 -88 66.5t-32.5 88q0 8 6 14t15 6h20q18 0 22 -20q7 -48 55 -84t138 -36q95 0 141.5 34.5t46.5 96.5q0 38 -22.5 62.5t-65.5 43t-130 46.5q-77 25 -120.5 49t-64.5 59t-21 89q0 51 27.5 92t79.5 64.5t124 23.5q74 0 127 -26.5t80 -67t29 -81.5
q0 -8 -5.5 -14t-15.5 -6h-20q-7 0 -14 4.5t-8 15.5q-6 50 -53.5 82.5t-119.5 32.5q-77 0 -122.5 -30t-45.5 -90q0 -39 20.5 -64.5t61.5 -44t121 -44.5q82 -26 128 -50t69.5 -58t23.5 -88q0 -90 -67 -140.5t-184 -50.5q-78 0 -135.5 25.5zM167 761q0 8 12 20l87 85
q9 9 16 11.5t16 2.5h10q10 0 16.5 -2.5t15.5 -11.5l87 -85q12 -12 12 -20q0 -11 -14 -11h-17q-7 0 -14 2t-11 5l-80 60l-80 -60q-4 -3 -11 -5t-14 -2h-17q-14 0 -14 11z" />
    <glyph glyph-name="scircumflex" unicode="&#x15d;" horiz-adv-x="492" 
d="M136.5 12q-44.5 22 -67 50t-22.5 45q0 9 7 14.5t15 5.5h15q7 0 11.5 -2.5t10.5 -10.5q22 -31 53.5 -48.5t86.5 -17.5q62 0 100 23.5t38 67.5q0 27 -15.5 44t-50 29.5t-102.5 28.5q-89 20 -121.5 55t-32.5 89q0 37 20.5 70t61 54t97.5 21q60 0 101.5 -20.5t62 -47.5
t20.5 -44q0 -9 -6.5 -14.5t-15.5 -5.5h-15q-14 0 -22 13q-20 30 -45.5 45.5t-79.5 15.5q-58 0 -88 -24t-30 -63q0 -24 12 -40t45 -29.5t96 -27.5q93 -21 131 -56t38 -93q0 -41 -23 -75t-68 -54t-108 -20q-65 0 -109.5 22zM109 606q0 8 12 20l87 85q9 9 15.5 11.5t16.5 2.5
h10q9 0 16 -2.5t16 -11.5l87 -85q12 -12 12 -20q0 -11 -14 -11h-17q-7 0 -14 2t-11 5l-80 60l-80 -60q-4 -3 -11 -5t-14 -2h-17q-14 0 -14 11z" />
    <glyph glyph-name="Scedilla" unicode="&#x15e;" horiz-adv-x="605" 
d="M259 -213q-20 7 -31.5 17t-11.5 19q0 5 3 8l14 13q4 4 9 4q4 0 14 -6.5t19.5 -11t25.5 -4.5q18 0 30.5 11t12.5 29q0 17 -12.5 27.5t-30.5 10.5q-14 0 -28.5 -5t-18.5 -5q-8 0 -13 6l-16 17q-3 3 -3 8t3.5 12t4.5 10l20 47q-62 8 -107.5 34t-69.5 63.5t-25 78.5q0 8 6 14
t15 6h20q18 0 22 -20q7 -48 55 -84t138 -36q95 0 141.5 34.5t46.5 96.5q0 38 -22.5 62.5t-65.5 43t-130 46.5q-77 25 -120.5 49t-64.5 59t-21 89q0 51 27.5 92t79.5 64.5t124 23.5q74 0 127 -26.5t80 -67t29 -81.5q0 -8 -5.5 -14t-15.5 -6h-20q-7 0 -14 4.5t-8 15.5
q-6 50 -53.5 82.5t-119.5 32.5q-77 0 -122.5 -30t-45.5 -90q0 -39 20.5 -64.5t61.5 -44t121 -44.5q82 -26 128 -50t69.5 -58t23.5 -88q0 -90 -67 -140.5t-184 -50.5l-23 -48q13 8 38 8q33 0 54.5 -23t21.5 -59q0 -38 -24 -63t-68 -25q-24 0 -44 7z" />
    <glyph glyph-name="scedilla" unicode="&#x15f;" horiz-adv-x="492" 
d="M201 -213q-20 7 -31.5 17t-11.5 19q0 5 3 8l14 13q4 4 9 4q4 0 14 -6.5t19.5 -11t25.5 -4.5q18 0 30.5 11t12.5 29q0 17 -12.5 27.5t-30.5 10.5q-14 0 -28.5 -5t-18.5 -5q-8 0 -13 6l-16 17q-3 3 -3 8t3.5 12t4.5 10l21 48q-48 8 -81 29.5t-49 45t-16 37.5q0 9 7 14.5
t15 5.5h15q7 0 11.5 -2.5t10.5 -10.5q22 -31 53.5 -48.5t86.5 -17.5q62 0 100 23.5t38 67.5q0 27 -15.5 44t-50 29.5t-102.5 28.5q-89 20 -121.5 55t-32.5 89q0 37 20.5 70t61 54t97.5 21q60 0 101.5 -20.5t62 -47.5t20.5 -44q0 -9 -6.5 -14.5t-15.5 -5.5h-15q-14 0 -22 13
q-20 30 -45.5 45.5t-79.5 15.5q-58 0 -88 -24t-30 -63q0 -24 12 -40t45 -29.5t96 -27.5q93 -21 131 -56t38 -93q0 -41 -23 -75t-68 -54t-108 -20l-23 -48q13 8 38 8q33 0 54.5 -23t21.5 -59q0 -38 -24 -63t-68 -25q-24 0 -44 7z" />
    <glyph glyph-name="Scaron" unicode="&#x160;" horiz-adv-x="605" 
d="M168.5 15.5q-57.5 25.5 -88 66.5t-32.5 88q0 8 6 14t15 6h20q18 0 22 -20q7 -48 55 -84t138 -36q95 0 141.5 34.5t46.5 96.5q0 38 -22.5 62.5t-65.5 43t-130 46.5q-77 25 -120.5 49t-64.5 59t-21 89q0 51 27.5 92t79.5 64.5t124 23.5q74 0 127 -26.5t80 -67t29 -81.5
q0 -8 -5.5 -14t-15.5 -6h-20q-7 0 -14 4.5t-8 15.5q-6 50 -53.5 82.5t-119.5 32.5q-77 0 -122.5 -30t-45.5 -90q0 -39 20.5 -64.5t61.5 -44t121 -44.5q82 -26 128 -50t69.5 -58t23.5 -88q0 -90 -67 -140.5t-184 -50.5q-78 0 -135.5 25.5zM282 752.5q-7 2.5 -16 11.5l-87 85
q-12 12 -12 20q0 11 14 11h17q7 0 14 -2t11 -5l80 -60l80 60q4 3 11 5t14 2h17q14 0 14 -11q0 -8 -12 -20l-87 -85q-9 -9 -15.5 -11.5t-16.5 -2.5h-10q-9 0 -16 2.5z" />
    <glyph glyph-name="scaron" unicode="&#x161;" horiz-adv-x="492" 
d="M136.5 12q-44.5 22 -67 50t-22.5 45q0 9 7 14.5t15 5.5h15q7 0 11.5 -2.5t10.5 -10.5q22 -31 53.5 -48.5t86.5 -17.5q62 0 100 23.5t38 67.5q0 27 -15.5 44t-50 29.5t-102.5 28.5q-89 20 -121.5 55t-32.5 89q0 37 20.5 70t61 54t97.5 21q60 0 101.5 -20.5t62 -47.5
t20.5 -44q0 -9 -6.5 -14.5t-15.5 -5.5h-15q-14 0 -22 13q-20 30 -45.5 45.5t-79.5 15.5q-58 0 -88 -24t-30 -63q0 -24 12 -40t45 -29.5t96 -27.5q93 -21 131 -56t38 -93q0 -41 -23 -75t-68 -54t-108 -20q-65 0 -109.5 22zM223.5 597.5q-6.5 2.5 -15.5 11.5l-87 85
q-12 12 -12 20q0 11 14 11h17q7 0 14 -2t11 -5l80 -60l80 60q4 3 11 5t14 2h17q14 0 14 -11q0 -8 -12 -20l-87 -85q-9 -9 -16 -11.5t-16 -2.5h-10q-10 0 -16.5 2.5z" />
    <glyph glyph-name="Tcaron" unicode="&#x164;" horiz-adv-x="557" 
d="M253 6q-6 6 -6 16v618h-198q-10 0 -16 6t-6 16v15q0 10 6 16.5t16 6.5h458q11 0 17 -6t6 -17v-15q0 -10 -6.5 -16t-16.5 -6h-197v-618q0 -10 -6.5 -16t-16.5 -6h-18q-10 0 -16 6zM258 752.5q-7 2.5 -16 11.5l-87 85q-12 12 -12 20q0 11 14 11h17q7 0 14 -2t11 -5l80 -60
l80 60q4 3 11 5t14 2h17q14 0 14 -11q0 -8 -12 -20l-87 -85q-9 -9 -15.5 -11.5t-16.5 -2.5h-10q-9 0 -16 2.5z" />
    <glyph glyph-name="tcaron" unicode="&#x165;" horiz-adv-x="325" 
d="M151 44.5q-31 44.5 -31 122.5v295h-78q-10 0 -16 6t-6 16v14q0 10 6 16t16 6h78v168q0 10 6 16t16 6h17q10 0 16 -6t6 -16v-168h124q10 0 16 -6t6 -16v-14q0 -10 -6 -16t-16 -6h-124v-291q0 -56 18.5 -84.5t61.5 -28.5h54q10 0 16 -6t6 -16v-14q0 -10 -6 -16t-16 -6h-59
q-74 0 -105 44.5zM275 616q-4 6 -2 15l17 112q3 27 25 27h45q7 0 11 -5t4 -11q0 -9 -4 -18l-40 -105q-5 -11 -10.5 -16t-15.5 -5h-18q-8 0 -12 6z" />
    <glyph glyph-name="Tbar" unicode="&#x166;" horiz-adv-x="567" 
d="M258 6q-6 6 -6 16v328h-118q-10 0 -16 6t-6 16v15q0 10 6 16.5t16 6.5h118v230h-198q-10 0 -16 6t-6 16v15q0 10 6 16.5t16 6.5h458q11 0 17 -6t6 -17v-15q0 -10 -6.5 -16t-16.5 -6h-197v-230h117q11 0 17 -6t6 -17v-15q0 -10 -6.5 -16t-16.5 -6h-117v-328
q0 -10 -6.5 -16t-16.5 -6h-18q-10 0 -16 6z" />
    <glyph glyph-name="tbar" unicode="&#x167;" horiz-adv-x="367" 
d="M156 44.5q-31 44.5 -31 122.5v137h-78q-10 0 -16 6t-6 16v14q0 10 6 16t16 6h78v100h-78q-10 0 -16 6t-6 16v14q0 10 6 16t16 6h78v168q0 10 6 16t16 6h17q10 0 16 -6t6 -16v-168h124q10 0 16 -6t6 -16v-14q0 -10 -6 -16t-16 -6h-124v-100h124q10 0 16 -6t6 -16v-14
q0 -10 -6 -16t-16 -6h-124v-133q0 -56 18.5 -84.5t61.5 -28.5h54q10 0 16 -6t6 -16v-14q0 -10 -6 -16t-16 -6h-59q-74 0 -105 44.5z" />
    <glyph glyph-name="Utilde" unicode="&#x168;" horiz-adv-x="691" 
d="M154.5 59.5q-66.5 69.5 -66.5 211.5v406q0 10 6 16.5t16 6.5h18q11 0 17 -6t6 -17v-409q0 -110 51 -164t144 -54q92 0 143 54t51 164v409q0 11 6.5 17t16.5 6h18q10 0 16 -6.5t6 -16.5v-406q0 -143 -66 -212t-191 -69t-191.5 69.5zM366 749.5q-12 4.5 -32 15.5
q-24 14 -36 14q-8 0 -12.5 -3.5t-9.5 -11.5q-8 -14 -19 -14h-20q-7 0 -11.5 5t-4.5 11q0 29 22 53.5t52 24.5q17 0 30.5 -5t30.5 -15q2 -1 14 -7.5t23 -6.5q8 0 12.5 3.5t9.5 11.5q4 8 8 11.5t11 3.5h20q7 0 11.5 -5t4.5 -11q0 -29 -23 -54t-52 -25q-17 0 -29 4.5z" />
    <glyph glyph-name="utilde" unicode="&#x169;" horiz-adv-x="585" 
d="M127 52q-51 62 -51 162v284q0 10 6 16t16 6h17q10 0 16 -6t6 -16v-279q0 -171 149 -171q72 0 114.5 45.5t42.5 125.5v279q0 10 6 16t16 6h17q10 0 16 -6t6 -16v-476q0 -10 -6 -16t-16 -6h-17q-10 0 -16 6t-6 16v47q-30 -39 -68.5 -59t-98.5 -20q-98 0 -149 62zM309.5 595
q-11.5 5 -28.5 15q-8 5 -16.5 9.5t-16.5 4.5t-12.5 -3.5t-9.5 -11.5q-8 -14 -19 -14h-20q-7 0 -11.5 5t-4.5 11q0 29 20.5 51t50.5 22q17 0 29.5 -5t27.5 -15q8 -5 16.5 -9.5t17.5 -4.5q8 0 12.5 3.5t9.5 11.5q4 8 8 11.5t11 3.5h20q7 0 11.5 -5t4.5 -11q0 -29 -21.5 -51.5
t-50.5 -22.5q-17 0 -28.5 5z" />
    <glyph glyph-name="Umacron" unicode="&#x16a;" horiz-adv-x="691" 
d="M154.5 59.5q-66.5 69.5 -66.5 211.5v406q0 10 6 16.5t16 6.5h18q11 0 17 -6t6 -17v-409q0 -110 51 -164t144 -54q92 0 143 54t51 164v409q0 11 6.5 17t16.5 6h18q10 0 16 -6.5t6 -16.5v-406q0 -143 -66 -212t-191 -69t-191.5 69.5zM230 756q-6 6 -6 16v22q0 10 6 16t16 6
h199q10 0 16 -6t6 -16v-22q0 -10 -6 -16t-16 -6h-199q-10 0 -16 6z" />
    <glyph glyph-name="umacron" unicode="&#x16b;" horiz-adv-x="585" 
d="M127 52q-51 62 -51 162v284q0 10 6 16t16 6h17q10 0 16 -6t6 -16v-279q0 -171 149 -171q72 0 114.5 45.5t42.5 125.5v279q0 10 6 16t16 6h17q10 0 16 -6t6 -16v-476q0 -10 -6 -16t-16 -6h-17q-10 0 -16 6t-6 16v47q-30 -39 -68.5 -59t-98.5 -20q-98 0 -149 62zM175 628
q-6 6 -6 16v14q0 10 6 16t16 6h199q10 0 16 -6t6 -16v-14q0 -10 -6 -16t-16 -6h-199q-10 0 -16 6z" />
    <glyph glyph-name="Ubreve" unicode="&#x16c;" horiz-adv-x="691" 
d="M154.5 59.5q-66.5 69.5 -66.5 211.5v406q0 10 6 16.5t16 6.5h18q11 0 17 -6t6 -17v-409q0 -110 51 -164t144 -54q92 0 143 54t51 164v409q0 11 6.5 17t16.5 6h18q10 0 16 -6.5t6 -16.5v-406q0 -143 -66 -212t-191 -69t-191.5 69.5zM257 773q-26 33 -26 83q0 8 5 13.5
t14 5.5h15q9 0 14 -5.5t5 -13.5q0 -28 14 -47t48 -19t48 19t14 47q0 8 5 13.5t14 5.5h15q9 0 14 -5.5t5 -13.5q0 -50 -26 -83t-89 -33t-89 33z" />
    <glyph glyph-name="ubreve" unicode="&#x16d;" horiz-adv-x="585" 
d="M127 52q-51 62 -51 162v284q0 10 6 16t16 6h17q10 0 16 -6t6 -16v-279q0 -171 149 -171q72 0 114.5 45.5t42.5 125.5v279q0 10 6 16t16 6h17q10 0 16 -6t6 -16v-476q0 -10 -6 -16t-16 -6h-17q-10 0 -16 6t-6 16v47q-30 -39 -68.5 -59t-98.5 -20q-98 0 -149 62zM205 623
q-25 33 -25 83q0 8 5 13.5t14 5.5h15q9 0 14 -5.5t5 -13.5q0 -66 57 -66t57 66q0 8 5 13.5t14 5.5h15q9 0 14 -5.5t5 -13.5q0 -50 -25 -83t-85 -33t-85 33z" />
    <glyph glyph-name="Uring" unicode="&#x16e;" horiz-adv-x="691" 
d="M154.5 59.5q-66.5 69.5 -66.5 211.5v406q0 10 6 16.5t16 6.5h18q11 0 17 -6t6 -17v-409q0 -110 51 -164t144 -54q92 0 143 54t51 164v409q0 11 6.5 17t16.5 6h18q10 0 16 -6.5t6 -16.5v-406q0 -143 -66 -212t-191 -69t-191.5 69.5zM289 761q-23 21 -23 54t23 54t57 21
t57 -21t23 -54t-23 -54t-57 -21t-57 21zM367.5 793.5q8.5 8.5 8.5 21.5t-8.5 21.5t-21.5 8.5t-21.5 -8.5t-8.5 -21.5t8.5 -21.5t21.5 -8.5t21.5 8.5z" />
    <glyph glyph-name="uring" unicode="&#x16f;" horiz-adv-x="585" 
d="M127 52q-51 62 -51 162v284q0 10 6 16t16 6h17q10 0 16 -6t6 -16v-279q0 -171 149 -171q72 0 114.5 45.5t42.5 125.5v279q0 10 6 16t16 6h17q10 0 16 -6t6 -16v-476q0 -10 -6 -16t-16 -6h-17q-10 0 -16 6t-6 16v47q-30 -39 -68.5 -59t-98.5 -20q-98 0 -149 62zM233 611
q-23 21 -23 54t23 54t57 21t57 -21t23 -54t-23 -54t-57 -21t-57 21zM311.5 643.5q8.5 8.5 8.5 21.5t-8.5 21.5t-21.5 8.5t-21.5 -8.5t-8.5 -21.5t8.5 -21.5t21.5 -8.5t21.5 8.5z" />
    <glyph glyph-name="Uhungarumlaut" unicode="&#x170;" horiz-adv-x="691" 
d="M154.5 59.5q-66.5 69.5 -66.5 211.5v406q0 10 6 16.5t16 6.5h18q11 0 17 -6t6 -17v-409q0 -110 51 -164t144 -54q92 0 143 54t51 164v409q0 11 6.5 17t16.5 6h18q10 0 16 -6.5t6 -16.5v-406q0 -143 -66 -212t-191 -69t-191.5 69.5zM243 766q0 5 5 15l36 80
q5 10 13.5 14.5t23.5 4.5h40q9 0 14.5 -5t5.5 -14q0 -7 -6 -13l-71 -84q-12 -14 -30 -14h-15q-16 0 -16 16zM391 766q0 5 5 15l36 80q5 10 13.5 14.5t23.5 4.5h40q9 0 14.5 -5t5.5 -14q0 -7 -6 -13l-71 -84q-12 -14 -30 -14h-15q-16 0 -16 16z" />
    <glyph glyph-name="uhungarumlaut" unicode="&#x171;" horiz-adv-x="585" 
d="M127 52q-51 62 -51 162v284q0 10 6 16t16 6h17q10 0 16 -6t6 -16v-279q0 -171 149 -171q72 0 114.5 45.5t42.5 125.5v279q0 10 6 16t16 6h17q10 0 16 -6t6 -16v-476q0 -10 -6 -16t-16 -6h-17q-10 0 -16 6t-6 16v47q-30 -39 -68.5 -59t-98.5 -20q-98 0 -149 62zM176 611
q0 5 5 15l36 80q5 10 13.5 14.5t23.5 4.5h35q9 0 14.5 -5t5.5 -14q0 -7 -6 -13l-71 -84q-12 -14 -30 -14h-10q-16 0 -16 16zM319 611q0 5 5 15l36 80q5 10 13.5 14.5t23.5 4.5h35q9 0 14.5 -5t5.5 -14q0 -7 -6 -13l-71 -84q-12 -14 -30 -14h-10q-16 0 -16 16z" />
    <glyph glyph-name="Uogonek" unicode="&#x172;" horiz-adv-x="691" 
d="M312.5 -183q-35.5 37 -35.5 101q0 49 15 76q-99 13 -151.5 82t-52.5 195v406q0 10 6 16.5t16 6.5h18q11 0 17 -6t6 -17v-409q0 -110 51 -164t144 -54q92 0 143 54t51 164v409q0 11 6.5 17t16.5 6h18q10 0 16 -6.5t6 -16.5v-406q0 -123 -49 -191.5t-142 -84.5
q-36 -8 -55.5 -25t-19.5 -52q0 -38 21 -59.5t55 -21.5h15q10 0 16 -6t6 -16v-13q0 -10 -6 -16t-16 -6h-19q-61 0 -96.5 37z" />
    <glyph glyph-name="uogonek" unicode="&#x173;" horiz-adv-x="585" 
d="M393 -185.5q-32 34.5 -32 95.5q0 44 25 77t57 48v8v26q-30 -39 -68.5 -59t-98.5 -20q-98 0 -149 62t-51 162v284q0 10 6 16t16 6h17q10 0 16 -6t6 -16v-279q0 -171 149 -171q72 0 114.5 45.5t42.5 125.5v279q0 10 6 16t16 6h17q10 0 16 -6t6 -16v-476q0 -14 -16 -22
l-3 -2q-33 -15 -48.5 -35t-15.5 -53q0 -37 15 -55t41 -18h5q10 0 16 -6t6 -16v-13q0 -10 -6 -16t-16 -6h-9q-48 0 -80 34.5z" />
    <glyph glyph-name="Wcircumflex" unicode="&#x174;" horiz-adv-x="788" 
d="M196.5 5.5q-6.5 5.5 -9.5 18.5l-137 644l-2 12q0 8 6 14t14 6h21q19 0 22 -15l117 -570l124 407q8 23 31 23h22q23 0 31 -23l124 -407l117 570q3 15 22 15h21q8 0 14 -6t6 -14l-2 -12l-137 -644q-3 -13 -9.5 -18.5t-18.5 -5.5h-15q-23 0 -31 24l-133 422l-133 -422
q-7 -24 -31 -24h-15q-12 0 -18.5 5.5zM258 761q0 8 12 20l87 85q9 9 16 11.5t16 2.5h10q10 0 16.5 -2.5t15.5 -11.5l87 -85q12 -12 12 -20q0 -11 -14 -11h-17q-7 0 -14 2t-11 5l-80 60l-80 -60q-4 -3 -11 -5t-14 -2h-17q-14 0 -14 11z" />
    <glyph glyph-name="wcircumflex" unicode="&#x175;" horiz-adv-x="786" 
d="M196 6q-7 6 -12 19l-141 464l-2 11q0 8 6 14t14 6h19q9 0 15 -5t7 -10l123 -416l131 411q2 8 9 14t18 6h20q11 0 18 -6t9 -14l131 -411l123 416q1 5 7 10t15 5h19q8 0 14 -6t6 -14l-2 -11l-141 -464q-5 -13 -12 -19t-20 -6h-17q-27 0 -34 25l-126 394l-126 -394
q-7 -25 -34 -25h-17q-13 0 -20 6zM257 606q0 8 12 20l87 85q9 9 15.5 11.5t16.5 2.5h10q9 0 16 -2.5t16 -11.5l87 -85q12 -12 12 -20q0 -11 -14 -11h-17q-7 0 -14 2t-11 5l-80 60l-80 -60q-4 -3 -11 -5t-14 -2h-17q-14 0 -14 11z" />
    <glyph glyph-name="Ycircumflex" unicode="&#x176;" horiz-adv-x="632" 
d="M290 6q-6 6 -6 16v245l-244 400q-4 8 -4 13q0 8 6 14t14 6h20q14 0 23 -15l217 -353l217 353q9 15 23 15h20q8 0 14 -6t6 -14q0 -5 -4 -13l-244 -400v-245q0 -10 -6.5 -16t-16.5 -6h-19q-10 0 -16 6zM180 761q0 8 12 20l87 85q9 9 16 11.5t16 2.5h10q10 0 16.5 -2.5
t15.5 -11.5l87 -85q12 -12 12 -20q0 -11 -14 -11h-17q-7 0 -14 2t-11 5l-80 60l-80 -60q-4 -3 -11 -5t-14 -2h-17q-14 0 -14 11z" />
    <glyph glyph-name="ycircumflex" unicode="&#x177;" horiz-adv-x="532" 
d="M155 -184q-6 6 -6 14q0 5 6 20l77 180l-191 450q-6 15 -6 20q0 8 6 14t14 6h21q16 0 23 -15l168 -396l172 396q8 15 23 15h20q8 0 14 -6t6 -14q0 -5 -6 -20l-284 -655q-7 -15 -23 -15h-20q-8 0 -14 6zM131 606q0 8 12 20l87 85q9 9 15.5 11.5t16.5 2.5h10q9 0 16 -2.5
t16 -11.5l87 -85q12 -12 12 -20q0 -11 -14 -11h-17q-7 0 -14 2t-11 5l-80 60l-80 -60q-4 -3 -11 -5t-14 -2h-17q-14 0 -14 11z" />
    <glyph glyph-name="Ydieresis" unicode="&#x178;" horiz-adv-x="632" 
d="M290 6q-6 6 -6 16v245l-244 400q-4 8 -4 13q0 8 6 14t14 6h20q14 0 23 -15l217 -353l217 353q9 15 23 15h20q8 0 14 -6t6 -14q0 -5 -4 -13l-244 -400v-245q0 -10 -6.5 -16t-16.5 -6h-19q-10 0 -16 6zM189 756q-6 6 -6 16v38q0 10 6 16.5t16 6.5h38q10 0 16.5 -6.5
t6.5 -16.5v-38q0 -10 -6.5 -16t-16.5 -6h-38q-10 0 -16 6zM372 756q-6 6 -6 16v38q0 10 6 16.5t16 6.5h38q10 0 16.5 -6.5t6.5 -16.5v-38q0 -10 -6.5 -16t-16.5 -6h-38q-10 0 -16 6z" />
    <glyph glyph-name="Zacute" unicode="&#x179;" horiz-adv-x="579" 
d="M48 6.5q-6 6.5 -6 16.5v20q0 17 7 27t8 11l394 559h-378q-10 0 -16 6t-6 16v15q0 10 6 16.5t16 6.5h431q11 0 17 -6t6 -17v-20q0 -11 -3.5 -18.5t-9.5 -17.5l-392 -561h392q11 0 17 -6t6 -17v-15q0 -10 -6.5 -16t-16.5 -6h-450q-10 0 -16 6.5zM252 766q0 8 5 13l69 83
q9 11 16 14.5t21 3.5h46q19 0 19 -19q0 -7 -5 -12l-109 -89q-8 -6 -14 -8t-17 -2h-15q-16 0 -16 16z" />
    <glyph glyph-name="zacute" unicode="&#x17a;" horiz-adv-x="490" 
d="M48 6q-6 6 -6 16v17q0 11 14 31l294 392h-276q-10 0 -16 6t-6 16v14q0 10 6 16t16 6h336q10 0 16 -6t6 -16v-17q0 -11 -14 -31l-292 -392h304q10 0 16 -6t6 -16v-14q0 -10 -6 -16t-16 -6h-366q-10 0 -16 6zM213 611q0 8 5 13l69 83q9 11 16 14.5t21 3.5h41q19 0 19 -19
q0 -7 -5 -12l-109 -89q-8 -6 -14 -8t-17 -2h-10q-16 0 -16 16z" />
    <glyph glyph-name="Zdotaccent" unicode="&#x17b;" horiz-adv-x="579" 
d="M48 6.5q-6 6.5 -6 16.5v20q0 17 7 27t8 11l394 559h-378q-10 0 -16 6t-6 16v15q0 10 6 16.5t16 6.5h431q11 0 17 -6t6 -17v-20q0 -11 -3.5 -18.5t-9.5 -17.5l-392 -561h392q11 0 17 -6t6 -17v-15q0 -10 -6.5 -16t-16.5 -6h-450q-10 0 -16 6.5zM239 756q-6 6 -6 16v48
q0 10 6 16.5t16 6.5h48q10 0 16.5 -6.5t6.5 -16.5v-48q0 -10 -6.5 -16t-16.5 -6h-48q-10 0 -16 6z" />
    <glyph glyph-name="zdotaccent" unicode="&#x17c;" horiz-adv-x="490" 
d="M48 6q-6 6 -6 16v17q0 11 14 31l294 392h-276q-10 0 -16 6t-6 16v14q0 10 6 16t16 6h336q10 0 16 -6t6 -16v-17q0 -11 -14 -31l-292 -392h304q10 0 16 -6t6 -16v-14q0 -10 -6 -16t-16 -6h-366q-10 0 -16 6zM207 623q-6 6 -6 16v48q0 10 6 16.5t16 6.5h48q10 0 16.5 -6.5
t6.5 -16.5v-48q0 -10 -6.5 -16t-16.5 -6h-48q-10 0 -16 6z" />
    <glyph glyph-name="Zcaron" unicode="&#x17d;" horiz-adv-x="579" 
d="M48 6.5q-6 6.5 -6 16.5v20q0 17 7 27t8 11l394 559h-378q-10 0 -16 6t-6 16v15q0 10 6 16.5t16 6.5h431q11 0 17 -6t6 -17v-20q0 -11 -3.5 -18.5t-9.5 -17.5l-392 -561h392q11 0 17 -6t6 -17v-15q0 -10 -6.5 -16t-16.5 -6h-450q-10 0 -16 6.5zM259 752.5q-7 2.5 -16 11.5
l-87 85q-12 12 -12 20q0 11 14 11h17q7 0 14 -2t11 -5l80 -60l80 60q4 3 11 5t14 2h17q14 0 14 -11q0 -8 -12 -20l-87 -85q-9 -9 -15.5 -11.5t-16.5 -2.5h-10q-9 0 -16 2.5z" />
    <glyph glyph-name="zcaron" unicode="&#x17e;" horiz-adv-x="490" 
d="M48 6q-6 6 -6 16v17q0 11 14 31l294 392h-276q-10 0 -16 6t-6 16v14q0 10 6 16t16 6h336q10 0 16 -6t6 -16v-17q0 -11 -14 -31l-292 -392h304q10 0 16 -6t6 -16v-14q0 -10 -6 -16t-16 -6h-366q-10 0 -16 6zM225.5 597.5q-6.5 2.5 -15.5 11.5l-87 85q-12 12 -12 20
q0 11 14 11h17q7 0 14 -2t11 -5l80 -60l80 60q4 3 11 5t14 2h17q14 0 14 -11q0 -8 -12 -20l-87 -85q-9 -9 -16 -11.5t-16 -2.5h-10q-10 0 -16.5 2.5z" />
    <glyph glyph-name="longs" unicode="&#x17f;" horiz-adv-x="272" 
d="M136 6q-6 6 -6 16v440h-89q-10 0 -16 6t-6 16v14q0 10 6 16t16 6h89v52q0 79 33 123.5t118 44.5h52q10 0 16 -6t6 -16v-14q0 -10 -6 -16t-16 -6h-52q-55 0 -72.5 -28t-17.5 -82v-550q0 -10 -6 -16t-16 -6h-17q-10 0 -16 6z" />
    <glyph glyph-name="florin" unicode="&#x192;" horiz-adv-x="395" 
d="M31 -219q-6 6 -6 16v14q0 10 6 16t16 6h8q55 0 72.5 28t17.5 82v519h-89q-10 0 -16 6t-6 16v14q0 10 6 16t16 6h89v57q0 76 33 119.5t118 43.5h52q10 0 16 -6t6 -16v-14q0 -10 -6 -16t-16 -6h-52q-51 0 -70.5 -26.5t-19.5 -83.5v-52h132q10 0 16 -6t6 -16v-14
q0 -10 -6 -16t-16 -6h-132v-519q0 -79 -33 -123.5t-118 -44.5h-8q-10 0 -16 6z" />
    <glyph glyph-name="AEacute" unicode="&#x1fc;" horiz-adv-x="920" 
d="M11 6q-6 6 -6 14q0 6 4 14l366 647q10 19 26 19h433q11 0 17 -6t6 -17v-15q0 -10 -6.5 -16t-16.5 -6h-349v-255h327q11 0 17 -6t6 -17v-15q0 -10 -6.5 -16t-16.5 -6h-327v-265h357q11 0 17 -6t6 -17v-15q0 -10 -6.5 -16t-16.5 -6h-398q-10 0 -16 6t-6 16v153h-262
l-90 -160q-8 -15 -22 -15h-23q-8 0 -14 6zM194 235h228v398h-1zM432 766q0 8 5 13l69 83q9 11 16 14.5t21 3.5h46q19 0 19 -19q0 -7 -5 -12l-109 -89q-8 -6 -14 -8t-17 -2h-15q-16 0 -16 16z" />
    <glyph glyph-name="aeacute" unicode="&#x1fd;" horiz-adv-x="881" 
d="M408 611q0 8 5 13l69 83q9 11 16 14.5t21 3.5h41q19 0 19 -19q0 -7 -5 -12l-109 -89q-8 -6 -14 -8t-17 -2h-10q-16 0 -16 16zM129 9.5q-41 19.5 -63.5 53.5t-22.5 76q0 66 54 109.5t144 55.5l158 22v32q0 55 -33.5 84.5t-102.5 29.5q-52 0 -84.5 -20t-41.5 -48
q-4 -12 -9.5 -16.5t-14.5 -4.5h-14q-9 0 -15.5 6.5t-6.5 15.5q0 22 20.5 51.5t62.5 51.5t103 22q71 0 114.5 -24t63.5 -64q58 88 174 88q124 0 169.5 -77.5t45.5 -180.5v-15q0 -10 -6.5 -16t-16.5 -6h-346v-10q2 -61 24.5 -101t57 -58t71.5 -18q42 0 79 16t60 49
q8 12 13.5 15t16.5 3h12q9 0 15 -5.5t6 -14.5q0 -18 -24.5 -47t-70 -51.5t-107.5 -22.5q-134 0 -187 110q-58 -110 -205 -110q-52 0 -93 19.5zM769 291v4q0 79 -39 128t-115 49q-40 0 -74 -19.5t-56 -59.5t-24 -98v-4h308zM352 96q47 48 47 138v34l-129 -18
q-82 -11 -124 -38t-42 -68q0 -46 38.5 -71t89.5 -25q73 0 120 48z" />
    <glyph glyph-name="Oslashacute" unicode="&#x1fe;" horiz-adv-x="682" 
d="M81 222l-38 -14q-8 -3 -13 -3q-9 0 -14 4.5t-5 13.5v19q0 11 4.5 15.5t17.5 9.5l44 17q-1 20 -1 57q0 27 2 93q4 136 74 206t190 70q107 0 175 -56t84 -166l37 14q7 3 13 3q9 0 14 -4.5t5 -13.5v-19q0 -11 -4.5 -15.5t-17.5 -9.5l-42 -16q2 -56 2 -80q0 -23 -2 -81
q-7 -276 -264 -276q-236 0 -261 232zM540 464q-12 95 -64 140.5t-134 45.5q-89 0 -143 -54.5t-58 -166.5q-2 -68 -2 -89v-31zM485.5 104.5q53.5 54.5 57.5 166.5q1 36 1 94v38l-402 -157q9 -100 62 -148t138 -48q90 0 143.5 54.5zM313 766q0 8 5 13l69 83q9 11 16 14.5
t21 3.5h46q19 0 19 -19q0 -7 -5 -12l-109 -89q-8 -6 -14 -8t-17 -2h-15q-16 0 -16 16z" />
    <glyph glyph-name="oslashacute" unicode="&#x1ff;" horiz-adv-x="594" 
d="M264 611q0 8 5 13l69 83q9 11 16 14.5t21 3.5h41q19 0 19 -19q0 -7 -5 -12l-109 -89q-8 -6 -14 -8t-17 -2h-10q-16 0 -16 16zM156 32.5q-52 42.5 -71 111.5l-38 -15q-8 -3 -13 -3q-9 0 -14 4.5t-5 13.5v19q0 11 4.5 15.5t17.5 9.5l39 15q-2 19 -2 56q0 29 1 43
q3 95 56 161.5t166 66.5q90 0 142 -44t70 -115l38 15q8 3 13 3q9 0 14 -4.5t5 -13.5v-19q0 -11 -4.5 -15.5t-17.5 -9.5l-39 -15q2 -26 2 -56l-1 -38q-3 -95 -56 -161.5t-166 -66.5q-89 0 -141 42.5zM452 349q-13 63 -55 93t-100 30q-68 0 -113 -41.5t-48 -128.5l-1 -36
l1 -40zM410 89.5q45 41.5 48 128.5q1 8 1 33q0 27 -1 38l-316 -123q15 -60 56.5 -89t98.5 -29q68 0 113 41.5z" />
    <glyph glyph-name="Scommaaccent" unicode="&#x218;" horiz-adv-x="605" 
d="M168.5 15.5q-57.5 25.5 -88 66.5t-32.5 88q0 8 6 14t15 6h20q18 0 22 -20q7 -48 55 -84t138 -36q95 0 141.5 34.5t46.5 96.5q0 38 -22.5 62.5t-65.5 43t-130 46.5q-77 25 -120.5 49t-64.5 59t-21 89q0 51 27.5 92t79.5 64.5t124 23.5q74 0 127 -26.5t80 -67t29 -81.5
q0 -8 -5.5 -14t-15.5 -6h-20q-7 0 -14 4.5t-8 15.5q-6 50 -53.5 82.5t-119.5 32.5q-77 0 -122.5 -30t-45.5 -90q0 -39 20.5 -64.5t61.5 -44t121 -44.5q82 -26 128 -50t69.5 -58t23.5 -88q0 -90 -67 -140.5t-184 -50.5q-78 0 -135.5 25.5zM242 -204q-4 6 -2 15l17 112
q3 27 25 27h45q6 0 10.5 -5t4.5 -11q0 -9 -4 -18l-40 -105q-5 -11 -10.5 -16t-15.5 -5h-18q-8 0 -12 6z" />
    <glyph glyph-name="scommaaccent" unicode="&#x219;" horiz-adv-x="492" 
d="M136.5 12q-44.5 22 -67 50t-22.5 45q0 9 7 14.5t15 5.5h15q7 0 11.5 -2.5t10.5 -10.5q22 -31 53.5 -48.5t86.5 -17.5q62 0 100 23.5t38 67.5q0 27 -15.5 44t-50 29.5t-102.5 28.5q-89 20 -121.5 55t-32.5 89q0 37 20.5 70t61 54t97.5 21q60 0 101.5 -20.5t62 -47.5
t20.5 -44q0 -9 -6.5 -14.5t-15.5 -5.5h-15q-14 0 -22 13q-20 30 -45.5 45.5t-79.5 15.5q-58 0 -88 -24t-30 -63q0 -24 12 -40t45 -29.5t96 -27.5q93 -21 131 -56t38 -93q0 -41 -23 -75t-68 -54t-108 -20q-65 0 -109.5 22zM185 -204q-4 6 -2 15l17 112q3 27 25 27h45
q7 0 11 -5t4 -11q0 -9 -4 -18l-40 -105q-5 -11 -10.5 -16t-15.5 -5h-18q-8 0 -12 6z" />
    <glyph glyph-name="uni021A" unicode="&#x21a;" horiz-adv-x="557" 
d="M253 6q-6 6 -6 16v618h-198q-10 0 -16 6t-6 16v15q0 10 6 16.5t16 6.5h458q11 0 17 -6t6 -17v-15q0 -10 -6.5 -16t-16.5 -6h-197v-618q0 -10 -6.5 -16t-16.5 -6h-18q-10 0 -16 6zM216 -204q-4 6 -2 15l17 112q3 27 25 27h45q6 0 10.5 -5t4.5 -11q0 -9 -4 -18l-40 -105
q-5 -11 -10.5 -16t-15.5 -5h-18q-8 0 -12 6z" />
    <glyph glyph-name="uni021B" unicode="&#x21b;" horiz-adv-x="359" 
d="M151 44.5q-31 44.5 -31 122.5v295h-78q-10 0 -16 6t-6 16v14q0 10 6 16t16 6h78v168q0 10 6 16t16 6h17q10 0 16 -6t6 -16v-168h124q10 0 16 -6t6 -16v-14q0 -10 -6 -16t-16 -6h-124v-291q0 -56 18.5 -84.5t61.5 -28.5h54q10 0 16 -6t6 -16v-14q0 -10 -6 -16t-16 -6h-59
q-74 0 -105 44.5zM97 -204q-4 6 -2 15l17 112q3 27 25 27h45q7 0 11 -5t4 -11q0 -9 -4 -18l-40 -105q-5 -11 -10.5 -16t-15.5 -5h-18q-8 0 -12 6z" />
    <glyph glyph-name="uni0237" unicode="&#x237;" horiz-adv-x="269" 
d="M16 -184q-6 6 -6 16v14q0 10 6 16t16 6h4q55 0 72.5 28t17.5 82v484h-84q-10 0 -16 6t-6 16v14q0 10 6 16t16 6h123q10 0 16 -6t6 -16v-520q0 -79 -33 -123.5t-118 -44.5h-4q-10 0 -16 6z" />
    <glyph glyph-name="uni02BC" unicode="&#x2bc;" horiz-adv-x="102" 
d="M2 641q-4 6 -2 15l17 112q3 27 25 27h45q7 0 11 -5t4 -11q0 -9 -4 -18l-40 -105q-5 -11 -10.5 -16t-15.5 -5h-18q-8 0 -12 6z" />
    <glyph glyph-name="circumflex" unicode="&#x2c6;" horiz-adv-x="412" 
d="M70 606q0 8 12 20l87 85q9 9 15.5 11.5t16.5 2.5h10q9 0 16 -2.5t16 -11.5l87 -85q12 -12 12 -20q0 -11 -14 -11h-17q-7 0 -14 2t-11 5l-80 60l-80 -60q-4 -3 -11 -5t-14 -2h-17q-14 0 -14 11z" />
    <glyph glyph-name="caron" unicode="&#x2c7;" horiz-adv-x="412" 
d="M184.5 597.5q-6.5 2.5 -15.5 11.5l-87 85q-12 12 -12 20q0 11 14 11h17q7 0 14 -2t11 -5l80 -60l80 60q4 3 11 5t14 2h17q14 0 14 -11q0 -8 -12 -20l-87 -85q-9 -9 -16 -11.5t-16 -2.5h-10q-10 0 -16.5 2.5z" />
    <glyph glyph-name="breve" unicode="&#x2d8;" horiz-adv-x="370" 
d="M100 623q-25 33 -25 83q0 8 5 13.5t14 5.5h15q9 0 14 -5.5t5 -13.5q0 -66 57 -66t57 66q0 8 5 13.5t14 5.5h15q9 0 14 -5.5t5 -13.5q0 -50 -25 -83t-85 -33t-85 33z" />
    <glyph glyph-name="dotaccent" unicode="&#x2d9;" horiz-adv-x="233" 
d="M76 623q-6 6 -6 16v48q0 10 6 16.5t16 6.5h48q10 0 16.5 -6.5t6.5 -16.5v-48q0 -10 -6.5 -16t-16.5 -6h-48q-10 0 -16 6z" />
    <glyph glyph-name="ring" unicode="&#x2da;" horiz-adv-x="300" 
d="M93 611q-23 21 -23 54t23 54t57 21t57 -21t23 -54t-23 -54t-57 -21t-57 21zM171.5 643.5q8.5 8.5 8.5 21.5t-8.5 21.5t-21.5 8.5t-21.5 -8.5t-8.5 -21.5t8.5 -21.5t21.5 -8.5t21.5 8.5z" />
    <glyph glyph-name="ogonek" unicode="&#x2db;" horiz-adv-x="313" 
d="M105.5 -183q-35.5 37 -35.5 101t35.5 101.5t96.5 37.5h19q10 0 16 -6t6 -16v-13q0 -10 -6 -16t-16 -6h-15q-34 0 -55 -22t-21 -60t21 -59.5t55 -21.5h15q10 0 16 -6t6 -16v-13q0 -10 -6 -16t-16 -6h-19q-61 0 -96.5 37z" />
    <glyph glyph-name="tilde" unicode="&#x2dc;" horiz-adv-x="379" 
d="M208.5 595q-11.5 5 -28.5 15q-8 5 -16.5 9.5t-16.5 4.5t-12.5 -3.5t-9.5 -11.5q-8 -14 -19 -14h-20q-7 0 -11.5 5t-4.5 11q0 29 20.5 51t50.5 22q17 0 29.5 -5t27.5 -15q8 -5 16.5 -9.5t17.5 -4.5q8 0 12.5 3.5t9.5 11.5q4 8 8 11.5t11 3.5h20q7 0 11.5 -5t4.5 -11
q0 -29 -21.5 -51.5t-50.5 -22.5q-17 0 -28.5 5z" />
    <glyph glyph-name="hungarumlaut" unicode="&#x2dd;" horiz-adv-x="416" 
d="M70 611q0 5 5 15l36 80q5 10 13.5 14.5t23.5 4.5h35q9 0 14.5 -5t5.5 -14q0 -7 -6 -13l-71 -84q-12 -14 -30 -14h-10q-16 0 -16 16zM213 611q0 5 5 15l36 80q5 10 13.5 14.5t23.5 4.5h35q9 0 14.5 -5t5.5 -14q0 -7 -6 -13l-71 -84q-12 -14 -30 -14h-10q-16 0 -16 16z" />
    <glyph glyph-name="gravecomb" unicode="&#x300;" 
d="M-113 597q-6 2 -14 8l-109 89q-5 5 -5 12q0 19 19 19h41q14 0 21 -3.5t16 -14.5l69 -83q5 -5 5 -13q0 -16 -16 -16h-10q-11 0 -17 2z" />
    <glyph glyph-name="acutecomb" unicode="&#x301;" 
d="M-241 611q0 8 5 13l69 83q9 11 16 14.5t21 3.5h41q19 0 19 -19q0 -7 -5 -12l-109 -89q-8 -6 -14 -8t-17 -2h-10q-16 0 -16 16z" />
    <glyph glyph-name="uni0302" unicode="&#x302;" 
d="M-342 606q0 8 12 20l87 85q9 9 15.5 11.5t16.5 2.5h10q9 0 16 -2.5t16 -11.5l87 -85q12 -12 12 -20q0 -11 -14 -11h-17q-7 0 -14 2t-11 5l-80 60l-80 -60q-4 -3 -11 -5t-14 -2h-17q-14 0 -14 11z" />
    <glyph glyph-name="tildecomb" unicode="&#x303;" 
d="M-170.5 595q-11.5 5 -28.5 15q-8 5 -16.5 9.5t-16.5 4.5t-12.5 -3.5t-9.5 -11.5q-8 -14 -19 -14h-20q-7 0 -11.5 5t-4.5 11q0 29 20.5 51t50.5 22q17 0 29.5 -5t27.5 -15q8 -5 16.5 -9.5t17.5 -4.5q8 0 12.5 3.5t9.5 11.5q4 8 8 11.5t11 3.5h20q7 0 11.5 -5t4.5 -11
q0 -29 -21.5 -51.5t-50.5 -22.5q-17 0 -28.5 5z" />
    <glyph glyph-name="uni0304" unicode="&#x304;" 
d="M-307 628q-6 6 -6 16v14q0 10 6 16t16 6h199q10 0 16 -6t6 -16v-14q0 -10 -6 -16t-16 -6h-199q-10 0 -16 6z" />
    <glyph glyph-name="uni0306" unicode="&#x306;" 
d="M-270 623q-25 33 -25 83q0 8 5 13.5t14 5.5h15q9 0 14 -5.5t5 -13.5q0 -66 57 -66t57 66q0 8 5 13.5t14 5.5h15q9 0 14 -5.5t5 -13.5q0 -50 -25 -83t-85 -33t-85 33z" />
    <glyph glyph-name="uni0307" unicode="&#x307;" 
d="M-157 623q-6 6 -6 16v48q0 10 6 16.5t16 6.5h48q10 0 16.5 -6.5t6.5 -16.5v-48q0 -10 -6.5 -16t-16.5 -6h-48q-10 0 -16 6z" />
    <glyph glyph-name="uni0308" unicode="&#x308;" 
d="M-300 633q-6 6 -6 16v38q0 10 6 16.5t16 6.5h38q10 0 16.5 -6.5t6.5 -16.5v-38q0 -10 -6.5 -16t-16.5 -6h-38q-10 0 -16 6zM-147 633q-6 6 -6 16v38q0 10 6 16.5t16 6.5h38q10 0 16.5 -6.5t6.5 -16.5v-38q0 -10 -6.5 -16t-16.5 -6h-38q-10 0 -16 6z" />
    <glyph glyph-name="uni030A" unicode="&#x30a;" 
d="M-207 611q-23 21 -23 54t23 54t57 21t57 -21t23 -54t-23 -54t-57 -21t-57 21zM-128.5 643.5q8.5 8.5 8.5 21.5t-8.5 21.5t-21.5 8.5t-21.5 -8.5t-8.5 -21.5t8.5 -21.5t21.5 -8.5t21.5 8.5z" />
    <glyph glyph-name="uni030B" unicode="&#x30b;" 
d="M-346 611q0 5 5 15l36 80q5 10 13.5 14.5t23.5 4.5h35q9 0 14.5 -5t5.5 -14q0 -7 -6 -13l-71 -84q-12 -14 -30 -14h-10q-16 0 -16 16zM-203 611q0 5 5 15l36 80q5 10 13.5 14.5t23.5 4.5h35q9 0 14.5 -5t5.5 -14q0 -7 -6 -13l-71 -84q-12 -14 -30 -14h-10q-16 0 -16 16z
" />
    <glyph glyph-name="uni030C" unicode="&#x30c;" 
d="M-227.5 597.5q-6.5 2.5 -15.5 11.5l-87 85q-12 12 -12 20q0 11 14 11h17q7 0 14 -2t11 -5l80 -60l80 60q4 3 11 5t14 2h17q14 0 14 -11q0 -8 -12 -20l-87 -85q-9 -9 -16 -11.5t-16 -2.5h-10q-10 0 -16.5 2.5z" />
    <glyph glyph-name="uni0326" unicode="&#x326;" 
d="M-169 -204q-4 6 -2 15l17 112q3 27 25 27h45q7 0 11 -5t4 -11q0 -9 -4 -18l-40 -105q-5 -11 -10.5 -16t-15.5 -5h-18q-8 0 -12 6z" />
    <glyph glyph-name="uni0327" unicode="&#x327;" 
d="M-206 -213q-20 7 -31.5 17t-11.5 19q0 5 3 8l14 13q4 4 9 4q4 0 14 -6.5t19.5 -11t25.5 -4.5q18 0 30.5 11t12.5 29q0 17 -12.5 27.5t-30.5 10.5q-14 0 -28.5 -5t-18.5 -5q-8 0 -13 6l-16 17q-3 3 -3 8t3.5 12t4.5 10l35 80h58l-42 -85q13 8 38 8q33 0 54.5 -23t21.5 -59
q0 -38 -24 -63t-68 -25q-24 0 -44 7z" />
    <glyph glyph-name="uni0328" unicode="&#x328;" 
d="M-207.5 -183q-35.5 37 -35.5 101t35.5 101.5t96.5 37.5h19q10 0 16 -6t6 -16v-13q0 -10 -6 -16t-16 -6h-15q-34 0 -55 -22t-21 -60t21 -59.5t55 -21.5h15q10 0 16 -6t6 -16v-13q0 -10 -6 -16t-16 -6h-19q-61 0 -96.5 37z" />
    <glyph glyph-name="uni0335" unicode="&#x335;" 
d="M-473 277q-6 6 -6 16v14q0 10 6 16t16 6h245q10 0 16 -6t6 -16v-14q0 -10 -6 -16t-16 -6h-245q-10 0 -16 6z" />
    <glyph glyph-name="uni0400" unicode="&#x400;" horiz-adv-x="592" 
d="M100 6q-6 6 -6 16v655q0 10 6 16.5t16 6.5h390q11 0 17 -6t6 -17v-15q0 -10 -6.5 -16t-16.5 -6h-349v-255h327q11 0 17 -6t6 -17v-15q0 -10 -6.5 -16t-16.5 -6h-327v-265h357q11 0 17 -6t6 -17v-15q0 -10 -6.5 -16t-16.5 -6h-398q-10 0 -16 6zM306 752q-6 2 -14 8
l-109 89q-5 5 -5 12q0 19 19 19h46q14 0 21 -3.5t16 -14.5l69 -83q5 -5 5 -13q0 -16 -16 -16h-15q-11 0 -17 2z" />
    <glyph glyph-name="uni0401" unicode="&#x401;" horiz-adv-x="592" 
d="M100 6q-6 6 -6 16v655q0 10 6 16.5t16 6.5h390q11 0 17 -6t6 -17v-15q0 -10 -6.5 -16t-16.5 -6h-349v-255h327q11 0 17 -6t6 -17v-15q0 -10 -6.5 -16t-16.5 -6h-327v-265h357q11 0 17 -6t6 -17v-15q0 -10 -6.5 -16t-16.5 -6h-398q-10 0 -16 6zM204 813q-6 6 -6 16v38
q0 10 6 16.5t16 6.5h38q10 0 16.5 -6.5t6.5 -16.5v-38q0 -10 -6.5 -16t-16.5 -6h-38q-10 0 -16 6zM357 813q-6 6 -6 16v38q0 10 6 16.5t16 6.5h38q10 0 16.5 -6.5t6.5 -16.5v-38q0 -10 -6.5 -16t-16.5 -6h-38q-10 0 -16 6z" />
    <glyph glyph-name="uni0402" unicode="&#x402;" horiz-adv-x="688" 
d="M193.5 6q-6.5 6 -6.5 16v618h-138q-10 0 -16 6t-6 16v15q0 10 6 16.5t16 6.5h428q11 0 17 -6t6 -17v-15q0 -10 -6.5 -16t-16.5 -6h-227v-247q20 33 75 49t113 16q103 0 156.5 -52t53.5 -150v-38q0 -99 -58 -158.5t-181 -59.5h-4q-10 0 -16 6t-6 16v16q0 10 6 16t16 6h4
q98 0 137 42t39 116v33q0 75 -37 111t-118 36q-69 0 -124.5 -26.5t-55.5 -93.5v-256q0 -10 -6 -16t-16 -6h-18q-10 0 -16.5 6z" />
    <glyph glyph-name="uni0403" unicode="&#x403;" horiz-adv-x="505" 
d="M100 6q-6 6 -6 16v655q0 10 6 16.5t16 6.5h366q11 0 17 -6t6 -17v-15q0 -10 -6.5 -16t-16.5 -6h-325v-618q0 -10 -6.5 -16t-16.5 -6h-18q-10 0 -16 6zM285 766q0 8 5 13l69 83q9 11 16 14.5t21 3.5h46q19 0 19 -19q0 -7 -5 -12l-109 -89q-8 -6 -14 -8t-17 -2h-15
q-16 0 -16 16z" />
    <glyph glyph-name="uni0404" unicode="&#x404;" horiz-adv-x="620" 
d="M138 63q-69 73 -73 233l-1 53l1 55q4 160 73 233t184 73q69 0 122 -21.5t85 -60t38 -88.5v-2q0 -8 -6 -13t-15 -5h-20q-10 0 -14.5 4.5t-7.5 16.5q-12 48 -58 78.5t-124 30.5q-94 0 -144 -61t-50 -185v-23h264q10 0 16 -6.5t6 -16.5v-14q0 -10 -6 -16.5t-16 -6.5h-264
v-25q0 -115 51 -180.5t143 -65.5q78 0 124 30.5t58 78.5q3 12 7.5 16.5t14.5 4.5h20q9 0 15.5 -5.5t5.5 -14.5q-6 -50 -38 -88.5t-85 -60t-122 -21.5q-115 0 -184 73z" />
    <glyph glyph-name="uni0405" unicode="&#x405;" horiz-adv-x="605" 
d="M168.5 15.5q-57.5 25.5 -88 66.5t-32.5 88q0 8 6 14t15 6h20q18 0 22 -20q7 -48 55 -84t138 -36q95 0 141.5 34.5t46.5 96.5q0 38 -22.5 62.5t-65.5 43t-130 46.5q-77 25 -120.5 49t-64.5 59t-21 89q0 51 27.5 92t79.5 64.5t124 23.5q74 0 127 -26.5t80 -67t29 -81.5
q0 -8 -5.5 -14t-15.5 -6h-20q-7 0 -14 4.5t-8 15.5q-6 50 -53.5 82.5t-119.5 32.5q-77 0 -122.5 -30t-45.5 -90q0 -39 20.5 -64.5t61.5 -44t121 -44.5q82 -26 128 -50t69.5 -58t23.5 -88q0 -90 -67 -140.5t-184 -50.5q-78 0 -135.5 25.5z" />
    <glyph glyph-name="uni0406" unicode="&#x406;" horiz-adv-x="251" 
d="M100 6q-6 6 -6 16v656q0 10 6 16t16 6h19q10 0 16 -6t6 -16v-656q0 -10 -6 -16t-16 -6h-19q-10 0 -16 6z" />
    <glyph glyph-name="uni0407" unicode="&#x407;" horiz-adv-x="251" 
d="M100 6q-6 6 -6 16v656q0 10 6 16t16 6h19q10 0 16 -6t6 -16v-656q0 -10 -6 -16t-16 -6h-19q-10 0 -16 6zM14 813q-6 6 -6 16v38q0 10 6 16.5t16 6.5h38q10 0 16.5 -6.5t6.5 -16.5v-38q0 -10 -6.5 -16t-16.5 -6h-38q-10 0 -16 6zM167 813q-6 6 -6 16v38q0 10 6 16.5
t16 6.5h38q10 0 16.5 -6.5t6.5 -16.5v-38q0 -10 -6.5 -16t-16.5 -6h-38q-10 0 -16 6z" />
    <glyph glyph-name="uni0408" unicode="&#x408;" horiz-adv-x="618" 
d="M116.5 41.5q-67.5 51.5 -71.5 152.5q0 10 5.5 16t15.5 6h20q10 0 15.5 -6t6.5 -15q6 -74 55.5 -109.5t124.5 -35.5q86 0 132.5 56.5t46.5 149.5v384h-369q-10 0 -16 6t-6 16v16q0 10 6 16t16 6h409q11 0 17 -6t6 -17v-422q0 -120 -63.5 -192.5t-178.5 -72.5
q-104 0 -171.5 51.5z" />
    <glyph glyph-name="uni0409" unicode="&#x409;" horiz-adv-x="949" 
d="M26.5 7q-6.5 7 -6.5 17v18q0 9 5.5 15t14.5 7q70 10 107.5 99t37.5 294v221q0 10 6 16t16 6h327q10 0 16 -6t6 -16v-255h143q101 0 155.5 -53.5t54.5 -155.5q0 -54 -23 -103t-70.5 -80t-116.5 -31h-184q-10 0 -16 6t-6 16v618h-245v-191q0 -158 -23 -255t-68 -142.5
t-114 -50.5q-10 -1 -16.5 6zM689 60q74 0 115.5 42.5t41.5 114.5q0 73 -38.5 109.5t-118.5 36.5h-133v-303h133z" />
    <glyph glyph-name="uni040A" unicode="&#x40a;" horiz-adv-x="979" 
d="M100 6q-6 6 -6 16v655q0 10 6 16.5t16 6.5h18q11 0 17 -6t6 -17v-292h366v292q0 10 6 16.5t16 6.5h19q10 0 16 -6t6 -16v-255h143q101 0 155.5 -53.5t54.5 -155.5q0 -54 -23 -103t-70.5 -80t-116.5 -31h-184q-10 0 -16 6t-6 16v303h-366v-303q0 -10 -6.5 -16t-16.5 -6
h-18q-10 0 -16 6zM719 60q74 0 115.5 42.5t41.5 114.5q0 73 -38.5 109.5t-118.5 36.5h-133v-303h133z" />
    <glyph glyph-name="uni040B" unicode="&#x40b;" horiz-adv-x="708" 
d="M193.5 6q-6.5 6 -6.5 16v618h-138q-10 0 -16 6t-6 16v15q0 10 6 16.5t16 6.5h428q11 0 17 -6t6 -17v-15q0 -10 -6.5 -16t-16.5 -6h-227v-247q20 33 75 49t113 16q103 0 156.5 -52t53.5 -150v-234q0 -10 -6 -16t-16 -6h-18q-10 0 -16.5 6t-6.5 16v229q0 75 -37 111
t-118 36q-69 0 -124.5 -26.5t-55.5 -93.5v-256q0 -10 -6 -16t-16 -6h-18q-10 0 -16.5 6z" />
    <glyph glyph-name="uni040C" unicode="&#x40c;" horiz-adv-x="614" 
d="M569 24q0 -10 -6.5 -17t-16.5 -7h-17q-15 0 -23 13l-210 312h-139v-303q0 -10 -6.5 -16t-16.5 -6h-18q-10 0 -16 6t-6 16v655q0 10 6 16.5t16 6.5h18q11 0 17 -6t6 -17v-292l135 -1l191 301q11 15 33 15h16q20 0 20 -20q0 -5 -5 -13l-195 -307l215 -325q2 -3 2 -11z
M270 766q0 8 5 13l69 83q9 11 16 14.5t21 3.5h46q19 0 19 -19q0 -7 -5 -12l-109 -89q-8 -6 -14 -8t-17 -2h-15q-16 0 -16 16z" />
    <glyph glyph-name="uni040D" unicode="&#x40d;" horiz-adv-x="726" 
d="M100 6.5q-6 6.5 -6 16.5v654q0 11 6.5 17t16.5 6h18q10 0 16 -6.5t6 -16.5v-567l411 578q8 12 21 12h21q10 0 16 -6.5t6 -16.5v-655q0 -10 -6 -16t-16 -6h-18q-10 0 -16.5 6t-6.5 16v566l-410 -576q-8 -12 -21 -12h-22q-10 0 -16 6.5zM347 752q-6 2 -14 8l-109 89
q-5 5 -5 12q0 19 19 19h46q14 0 21 -3.5t16 -14.5l69 -83q5 -5 5 -13q0 -16 -16 -16h-15q-11 0 -17 2z" />
    <glyph glyph-name="uni040E" unicode="&#x40e;" horiz-adv-x="563" 
d="M557 694q6 -6 6 -14q0 -6 -3 -12l-206 -464q-35 -79 -60 -120t-59.5 -62.5t-87.5 -21.5h-34q-10 0 -16 6t-6 16v15q0 10 6 16.5t16 6.5h34q43 0 72 30t63 101l-264 477q-3 6 -3 12q0 8 6 14t14 6h21q14 0 23 -15l236 -421l184 421q3 7 9.5 11t13.5 4h21q8 0 14 -6z
M174.5 773q-32.5 33 -32.5 83q0 8 5 13.5t14 5.5h15q9 0 14 -5.5t5 -13.5q0 -66 92 -66t92 66q0 8 5 13.5t14 5.5h15q9 0 14 -5.5t5 -13.5q0 -50 -32.5 -83t-112.5 -33t-112.5 33z" />
    <glyph glyph-name="uni040F" unicode="&#x40f;" horiz-adv-x="700" 
d="M324 -134q-6 6 -6 16v118h-202q-10 0 -16 6t-6 16v656q0 10 6 16t16 6h18q10 0 16.5 -6t6.5 -16v-618h386v618q0 10 6 16t16 6h18q10 0 16.5 -6t6.5 -16v-656q0 -10 -6.5 -16t-16.5 -6h-202v-118q0 -10 -6.5 -16t-16.5 -6h-18q-10 0 -16 6z" />
    <glyph glyph-name="uni0410" unicode="&#x410;" horiz-adv-x="650" 
d="M30 6q-6 6 -6 14l2 11l253 649q8 20 29 20h34q21 0 29 -20l253 -649l2 -11q0 -8 -6 -14t-14 -6h-20q-9 0 -14.5 5t-7.5 10l-62 160h-354l-62 -160q-2 -5 -7.5 -10t-14.5 -5h-20q-8 0 -14 6zM172 235h306l-153 394z" />
    <glyph glyph-name="uni0411" unicode="&#x411;" horiz-adv-x="632" 
d="M100 6q-6 6 -6 16v655q0 10 6 16.5t16 6.5h416q11 0 17 -6t6 -17v-15q0 -10 -6.5 -16t-16.5 -6h-375v-237h223q99 0 154.5 -54t55.5 -145q0 -48 -23 -95t-70.5 -78t-116.5 -31h-264q-10 0 -16 6zM370 60q48 0 83.5 19.5t54.5 53.5t19 74q0 63 -39.5 99.5t-117.5 36.5
h-213v-283h213z" />
    <glyph glyph-name="uni0412" unicode="&#x412;" horiz-adv-x="653" 
d="M100 6q-6 6 -6 16v655q0 10 6 16.5t16 6.5h261q99 0 150 -51t51 -128q0 -59 -26 -97t-62 -55q43 -22 72.5 -67t29.5 -104q0 -52 -24.5 -97.5t-71.5 -73t-112 -27.5h-268q-10 0 -16 6zM364 396q74 0 112.5 32.5t38.5 92.5q0 59 -38.5 89t-112.5 30h-207v-244h207zM374 60
q73 0 114 38.5t41 99.5q0 62 -41 100t-114 38h-217v-276h217z" />
    <glyph glyph-name="uni0413" unicode="&#x413;" horiz-adv-x="505" 
d="M100 6q-6 6 -6 16v655q0 10 6 16.5t16 6.5h366q11 0 17 -6t6 -17v-15q0 -10 -6.5 -16t-16.5 -6h-325v-618q0 -10 -6.5 -16t-16.5 -6h-18q-10 0 -16 6z" />
    <glyph glyph-name="uni0414" unicode="&#x414;" horiz-adv-x="676" 
d="M26 -133q-6 6 -6 16v155q0 10 6 16t16 6h23q102 0 102 397v221q0 10 6 16t16 6h356q11 0 17 -6t6 -17v-617h50q10 0 16.5 -6t6.5 -16v-155q0 -10 -6.5 -16t-16.5 -6h-18q-10 0 -16 6t-6 16v117h-495v-117q0 -10 -6.5 -16t-16.5 -6h-18q-10 0 -16 6zM505 60v580h-275v-191
q0 -156 -18 -250t-55 -139h348z" />
    <glyph glyph-name="uni0415" unicode="&#x415;" horiz-adv-x="592" 
d="M100 6q-6 6 -6 16v655q0 10 6 16.5t16 6.5h390q11 0 17 -6t6 -17v-15q0 -10 -6.5 -16t-16.5 -6h-349v-255h327q11 0 17 -6t6 -17v-15q0 -10 -6.5 -16t-16.5 -6h-327v-265h357q11 0 17 -6t6 -17v-15q0 -10 -6.5 -16t-16.5 -6h-398q-10 0 -16 6z" />
    <glyph glyph-name="uni0416" unicode="&#x416;" horiz-adv-x="957" 
d="M912 24q0 -10 -6.5 -17t-16.5 -7h-17q-15 0 -23 13l-210 312h-129v-304q0 -9 -6 -15t-16 -6h-19q-10 0 -16 6t-6 16v303h-131l-208 -312q-8 -13 -23 -13h-17q-10 0 -16.5 7t-6.5 17q0 8 2 11l215 325l-195 307q-5 8 -5 13q0 20 20 20h14q22 0 33 -15l191 -301l127 1v293
q0 10 6 16t16 6h19q10 0 16 -6t6 -16v-293l125 -1l191 301q11 15 33 15h16q20 0 20 -20q0 -5 -5 -13l-195 -307l215 -325q2 -3 2 -11z" />
    <glyph glyph-name="uni0417" unicode="&#x417;" horiz-adv-x="599" 
d="M112 37q-65 47 -72 124v2q0 8 6 12.5t15 4.5h16q10 0 17 -4.5t10 -18.5q12 -49 59 -78t121 -29q51 0 95 17.5t70 50t26 75.5q0 67 -48 105t-130 38h-71q-10 0 -16 6t-6 16v15q0 10 6 16.5t16 6.5h66q73 0 115.5 32.5t42.5 98.5q0 55 -47 89t-115 34q-72 0 -117.5 -26.5
t-57.5 -82.5q-4 -21 -22 -21h-20q-9 0 -15.5 5.5t-5.5 14.5q7 80 69.5 125t168.5 45q74 0 124.5 -26t75.5 -67.5t25 -89.5q0 -51 -19.5 -92.5t-60.5 -66.5q51 -25 78 -70.5t27 -104.5q0 -60 -31.5 -106t-89 -71.5t-133.5 -25.5q-107 0 -172 47z" />
    <glyph glyph-name="uni0418" unicode="&#x418;" horiz-adv-x="726" 
d="M100 6.5q-6 6.5 -6 16.5v654q0 11 6.5 17t16.5 6h18q10 0 16 -6.5t6 -16.5v-567l411 578q8 12 21 12h21q10 0 16 -6.5t6 -16.5v-655q0 -10 -6 -16t-16 -6h-18q-10 0 -16.5 6t-6.5 16v566l-410 -576q-8 -12 -21 -12h-22q-10 0 -16 6.5z" />
    <glyph glyph-name="uni0419" unicode="&#x419;" horiz-adv-x="726" 
d="M100 6.5q-6 6.5 -6 16.5v654q0 11 6.5 17t16.5 6h18q10 0 16 -6.5t6 -16.5v-567l411 578q8 12 21 12h21q10 0 16 -6.5t6 -16.5v-655q0 -10 -6 -16t-16 -6h-18q-10 0 -16.5 6t-6.5 16v566l-410 -576q-8 -12 -21 -12h-22q-10 0 -16 6.5zM244.5 773q-32.5 33 -32.5 83
q0 8 5 13.5t14 5.5h15q9 0 14 -5.5t5 -13.5q0 -66 92 -66t92 66q0 8 5 13.5t14 5.5h15q9 0 14 -5.5t5 -13.5q0 -50 -32.5 -83t-112.5 -33t-112.5 33z" />
    <glyph glyph-name="uni041A" unicode="&#x41a;" horiz-adv-x="614" 
d="M569 24q0 -10 -6.5 -17t-16.5 -7h-17q-15 0 -23 13l-210 312h-139v-303q0 -10 -6.5 -16t-16.5 -6h-18q-10 0 -16 6t-6 16v655q0 10 6 16.5t16 6.5h18q11 0 17 -6t6 -17v-292l135 -1l191 301q11 15 33 15h16q20 0 20 -20q0 -5 -5 -13l-195 -307l215 -325q2 -3 2 -11z" />
    <glyph glyph-name="uni041B" unicode="&#x41b;" horiz-adv-x="680" 
d="M529 6q-6 6 -6 16v618h-275v-191q0 -158 -23 -254.5t-68 -142t-114 -51.5q-10 -1 -16.5 6t-6.5 17v18q0 9 5.5 15t14.5 7q70 10 107.5 99t37.5 294v221q0 10 6 16t16 6h356q11 0 17 -6t6 -17v-655q0 -10 -6.5 -16t-16.5 -6h-18q-10 0 -16 6z" />
    <glyph glyph-name="uni041C" unicode="&#x41c;" horiz-adv-x="780" 
d="M100.5 6q-6.5 6 -6.5 16v655q0 11 6.5 17t16.5 6h25q15 0 21 -13l227 -442l228 442q7 13 21 13h24q11 0 17 -6t6 -17v-655q0 -10 -6.5 -16t-16.5 -6h-18q-10 0 -16 6t-6 16v542l-191 -376q-9 -20 -31 -20h-22q-22 0 -31 20l-191 376v-542q0 -10 -6 -16t-16 -6h-18
q-10 0 -16.5 6z" />
    <glyph glyph-name="uni041D" unicode="&#x41d;" horiz-adv-x="700" 
d="M100 6q-6 6 -6 16v655q0 10 6 16.5t16 6.5h18q11 0 17 -6t6 -17v-292h386v292q0 10 6 16.5t16 6.5h18q11 0 17 -6t6 -17v-655q0 -10 -6.5 -16t-16.5 -6h-18q-10 0 -16 6t-6 16v303h-386v-303q0 -10 -6.5 -16t-16.5 -6h-18q-10 0 -16 6z" />
    <glyph glyph-name="uni041E" unicode="&#x41e;" horiz-adv-x="662" 
d="M67 266q-1 30 -1 84t1 84q4 136 74 206t190 70t190 -70t74 -206q2 -60 2 -84t-2 -84q-7 -276 -264 -276t-264 276zM474.5 104.5q53.5 54.5 57.5 166.5q2 60 2 79t-2 79q-4 112 -58 166.5t-143 54.5t-143 -54.5t-58 -166.5q-1 -30 -1 -79t1 -79q4 -112 57.5 -166.5
t143.5 -54.5t143.5 54.5z" />
    <glyph glyph-name="uni041F" unicode="&#x41f;" horiz-adv-x="700" 
d="M100 6q-6 6 -6 16v655q0 10 6 16.5t16 6.5h467q11 0 17 -6t6 -17v-655q0 -10 -6.5 -16t-16.5 -6h-18q-10 0 -16 6t-6 16v618h-386v-618q0 -10 -6.5 -16t-16.5 -6h-18q-10 0 -16 6z" />
    <glyph glyph-name="uni0420" unicode="&#x420;" horiz-adv-x="628" 
d="M100 6q-6 6 -6 16v655q0 10 6 16.5t16 6.5h243q107 0 168.5 -53.5t61.5 -153.5t-61.5 -153.5t-168.5 -53.5h-202v-264q0 -10 -6.5 -16t-16.5 -6h-18q-10 0 -16 6zM354 346q86 0 129 37.5t43 109.5t-43 109.5t-129 37.5h-197v-294h197z" />
    <glyph glyph-name="uni0421" unicode="&#x421;" horiz-adv-x="651" 
d="M136 63.5q-65 73.5 -70 197.5q-1 27 -1 88q0 62 1 90q5 124 70 197.5t195 73.5q89 0 148 -32.5t87.5 -82t31.5 -101.5v-2q0 -8 -6 -13t-15 -5h-20q-18 0 -22 21q-19 85 -69 120t-135 35q-94 0 -146 -53t-56 -163q-1 -27 -1 -83t1 -85q4 -110 56 -163t146 -53q85 0 135 35
t69 120q4 21 22 21h20q9 0 15.5 -5.5t5.5 -14.5q-3 -52 -31.5 -101.5t-87.5 -82t-148 -32.5q-130 0 -195 73.5z" />
    <glyph glyph-name="uni0422" unicode="&#x422;" horiz-adv-x="557" 
d="M253 6q-6 6 -6 16v618h-198q-10 0 -16 6t-6 16v15q0 10 6 16.5t16 6.5h458q11 0 17 -6t6 -17v-15q0 -10 -6.5 -16t-16.5 -6h-197v-618q0 -10 -6.5 -16t-16.5 -6h-18q-10 0 -16 6z" />
    <glyph glyph-name="uni0423" unicode="&#x423;" horiz-adv-x="563" 
d="M557 694q6 -6 6 -14q0 -6 -3 -12l-206 -464q-35 -79 -60 -120t-59.5 -62.5t-87.5 -21.5h-34q-10 0 -16 6t-6 16v15q0 10 6 16.5t16 6.5h34q43 0 72 30t63 101l-264 477q-3 6 -3 12q0 8 6 14t14 6h21q14 0 23 -15l236 -421l184 421q3 7 9.5 11t13.5 4h21q8 0 14 -6z" />
    <glyph glyph-name="uni0424" unicode="&#x424;" horiz-adv-x="825" 
d="M387 -26q-6 6 -6 16v84q-148 0 -224 62.5t-90 193.5q-1 10 -1 29q0 25 1 39q7 127 89 191.5t225 64.5v74q0 10 6 16t16 6h19q10 0 16 -6t6 -16v-74q143 0 225.5 -64.5t88.5 -191.5q1 -14 1 -39q0 -19 -1 -29q-12 -131 -89 -193.5t-225 -62.5v-84q0 -10 -6 -16t-16 -6h-19
q-10 0 -16 6zM381 594q-116 0 -178.5 -48.5t-72.5 -152.5q-1 -9 -1 -25q0 -20 1 -33q6 -104 70 -152.5t181 -48.5v460zM695 335q1 13 1 33q0 16 -1 25q-11 105 -73.5 153t-177.5 48v-460q241 0 251 201z" />
    <glyph glyph-name="uni0425" unicode="&#x425;" horiz-adv-x="609" 
d="M36 6q-6 6 -6 14q0 7 4 13l233 323l-224 311q-4 6 -4 13q0 8 6 14t14 6h24q13 0 23 -15l201 -280l197 280q11 15 23 15h22q8 0 14 -6t6 -14q0 -7 -4 -13l-221 -313l232 -321q4 -6 4 -13q0 -8 -6 -14t-14 -6h-24q-12 0 -23 15l-209 289l-209 -289q-10 -15 -23 -15h-22
q-8 0 -14 6z" />
    <glyph glyph-name="uni0426" unicode="&#x426;" horiz-adv-x="714" 
d="M622 -134q-6 6 -6 16v118h-500q-10 0 -16 6.5t-6 16.5v655q0 10 6 16t16 6h18q10 0 16.5 -6t6.5 -16v-618h386v618q0 10 6 16t16 6h18q10 0 16.5 -6t6.5 -16v-618h50q10 0 16.5 -6t6.5 -16v-156q0 -10 -6.5 -16t-16.5 -6h-18q-10 0 -16 6z" />
    <glyph glyph-name="uni0427" unicode="&#x427;" horiz-adv-x="635" 
d="M484 6q-6 6 -6 16v275q-21 -27 -76.5 -41t-111.5 -14q-230 0 -230 202v234q0 10 6 16t16 6h18q10 0 16.5 -6t6.5 -16v-229q0 -76 40.5 -111.5t134.5 -35.5q69 0 124.5 26.5t55.5 93.5v256q0 10 6 16t16 6h18q10 0 16.5 -6t6.5 -16v-656q0 -10 -6.5 -16t-16.5 -6h-18
q-10 0 -16 6z" />
    <glyph glyph-name="uni0428" unicode="&#x428;" horiz-adv-x="945" 
d="M100 6q-6 6 -6 16v656q0 10 6 16t16 6h18q10 0 16.5 -6t6.5 -16v-618h284v618q0 10 6 16t16 6h18q10 0 16.5 -6t6.5 -16v-618h284v618q0 10 6 16t16 6h18q10 0 16.5 -6t6.5 -16v-656q0 -10 -6.5 -16t-16.5 -6h-712q-10 0 -16 6z" />
    <glyph glyph-name="uni0429" unicode="&#x429;" horiz-adv-x="959" 
d="M867 -134q-6 6 -6 16v118h-745q-10 0 -16 6t-6 16v656q0 10 6 16t16 6h18q10 0 16.5 -6t6.5 -16v-618h284v618q0 10 6 16t16 6h18q10 0 16.5 -6t6.5 -16v-618h284v618q0 10 6 16t16 6h18q10 0 16.5 -6t6.5 -16v-618h50q10 0 16.5 -6t6.5 -16v-156q0 -10 -6.5 -16
t-16.5 -6h-18q-10 0 -16 6z" />
    <glyph glyph-name="uni042A" unicode="&#x42a;" horiz-adv-x="693" 
d="M223 6q-6 6 -6 16v618h-168q-10 0 -16 6t-6 16v15q0 10 6 16.5t16 6.5h209q10 0 16 -6t6 -16v-255h163q101 0 155.5 -53.5t54.5 -155.5q0 -54 -23 -103t-70.5 -80t-116.5 -31h-204q-10 0 -16 6zM433 60q74 0 115.5 42.5t41.5 114.5q0 73 -38.5 109.5t-118.5 36.5h-153
v-303h153z" />
    <glyph glyph-name="uni042B" unicode="&#x42b;" horiz-adv-x="771" 
d="M100 6q-6 6 -6 16v656q0 10 6 16t16 6h18q10 0 16.5 -6t6.5 -16v-255h143q101 0 155.5 -53.5t54.5 -155.5q0 -54 -23 -103t-70.5 -80t-116.5 -31h-184q-10 0 -16 6zM620 6q-6 6 -6 16v656q0 10 6 16t16 6h19q10 0 16 -6t6 -16v-656q0 -10 -6 -16t-16 -6h-19q-10 0 -16 6z
M290 60q74 0 115.5 42.5t41.5 114.5q0 73 -38.5 109.5t-118.5 36.5h-133v-303h133z" />
    <glyph glyph-name="uni042C" unicode="&#x42c;" horiz-adv-x="580" 
d="M100 6q-6 6 -6 16v656q0 10 6 16t16 6h18q10 0 16.5 -6t6.5 -16v-255h173q101 0 155.5 -53.5t54.5 -155.5q0 -54 -23 -103t-70.5 -80t-116.5 -31h-214q-10 0 -16 6zM320 60q74 0 115.5 42.5t41.5 114.5q0 73 -38.5 109.5t-118.5 36.5h-163v-303h163z" />
    <glyph glyph-name="uni042D" unicode="&#x42d;" horiz-adv-x="620" 
d="M176 11.5q-53 21.5 -85 60t-38 88.5v2q0 8 6 13t15 5h20q10 0 14.5 -4.5t7.5 -16.5q12 -48 58 -78.5t124 -30.5q92 0 143 65.5t51 180.5v25h-264q-10 0 -16 6.5t-6 16.5v14q0 10 6 16.5t16 6.5h264v23q0 124 -50 185t-144 61q-78 0 -124 -30.5t-58 -78.5
q-3 -12 -7.5 -16.5t-14.5 -4.5h-20q-9 0 -15.5 5.5t-5.5 14.5q6 50 38 88.5t85 60t122 21.5q115 0 184 -73t73 -233q1 -20 1 -55q0 -34 -1 -53q-4 -160 -73 -233t-184 -73q-69 0 -122 21.5z" />
    <glyph glyph-name="uni042E" unicode="&#x42e;" horiz-adv-x="914" 
d="M384.5 65.5q-61.5 75.5 -65.5 200.5q-2 42 -2 59h-160v-303q0 -10 -6.5 -16t-16.5 -6h-18q-10 0 -16 6t-6 16v656q0 10 6 16t16 6h18q10 0 16.5 -6t6.5 -16v-293h160q0 15 2 49q4 122 66 199t198 77t198 -77t66 -199q2 -60 2 -84t-2 -84q-4 -125 -65.5 -200.5
t-198.5 -75.5t-198.5 75.5zM727 102q53 52 57 164q2 60 2 84t-2 84q-4 112 -57.5 164t-143.5 52t-143.5 -52t-57.5 -164q-1 -30 -1 -84t1 -84q4 -112 57 -164t144 -52t144 52z" />
    <glyph glyph-name="uni042F" unicode="&#x42f;" horiz-adv-x="642" 
d="M542 694q6 -6 6 -16v-656q0 -10 -6 -16t-16 -6h-18q-10 0 -16.5 6t-6.5 16v255h-160l-165 -250q-9 -14 -16 -20.5t-22 -6.5h-12q-8 0 -14 6t-6 14q0 5 3 11l164 251q-75 13 -115 65t-40 139q0 54 23 103t70.5 80t116.5 31h214q10 0 16 -6zM485 640h-163
q-74 0 -115.5 -42.5t-41.5 -114.5q0 -73 38.5 -109.5t118.5 -36.5h163v303z" />
    <glyph glyph-name="uni0430" unicode="&#x430;" horiz-adv-x="536" 
d="M132 10q-41 20 -65.5 54t-24.5 75q0 66 53.5 108t144.5 54l158 22v35q0 55 -33.5 84.5t-102.5 29.5q-51 0 -83.5 -20t-41.5 -48q-4 -12 -9.5 -16.5t-14.5 -4.5h-14q-9 0 -15.5 6.5t-6.5 15.5q0 22 20 51.5t62 51.5t103 22q107 0 152 -51t45 -124v-333q0 -10 -6 -16
t-16 -6h-17q-10 0 -16 6t-6 16v47q-22 -33 -64.5 -56t-112.5 -23q-48 0 -89 20zM351 96q47 48 47 138v34l-129 -18q-82 -11 -124 -38t-42 -68q0 -46 38.5 -71t89.5 -25q73 0 120 48z" />
    <glyph glyph-name="uni0431" unicode="&#x431;" horiz-adv-x="567" 
d="M511 242q0 -17 -1 -24q-3 -101 -60.5 -164.5t-161.5 -63.5t-162 63.5t-61 164.5v119q0 144 34.5 216t98.5 103t204 69q14 3 42 11l5 1q7 0 12.5 -4.5t7.5 -11.5l4 -19q1 -2 1 -6q0 -7 -4 -11.5t-11 -6.5l-65 -17q-110 -29 -160 -50.5t-78.5 -67.5t-30.5 -136
q25 42 72 67.5t101 25.5q97 0 153 -64t59 -164q1 -10 1 -30zM450 242q0 15 -1 25q-3 83 -45 129t-106 46q-72 0 -120 -46t-51 -129l-1 -25l1 -19q3 -84 46.5 -129.5t114.5 -45.5t114.5 45.5t46.5 129.5q1 6 1 19z" />
    <glyph glyph-name="uni0432" unicode="&#x432;" horiz-adv-x="542" 
d="M87 6q-6 6 -6 16v476q0 10 6 16t16 6h197q81 0 126.5 -37t45.5 -99q0 -45 -16.5 -69t-53.5 -41q38 -14 59 -51t21 -78q0 -70 -47.5 -107.5t-129.5 -37.5h-202q-10 0 -16 6zM290 291q55 0 88 25t33 68q0 42 -31.5 60t-89.5 18h-148v-171h148zM297 58q57 0 90.5 22.5
t33.5 64.5q0 45 -30.5 66.5t-93.5 21.5h-155v-175h155z" />
    <glyph glyph-name="uni0433" unicode="&#x433;" horiz-adv-x="418" 
d="M87 6q-6 6 -6 16v476q0 10 6 16t16 6h283q10 0 16 -6t6 -16v-14q0 -10 -6 -16t-16 -6h-244v-440q0 -10 -6 -16t-16 -6h-17q-10 0 -16 6z" />
    <glyph glyph-name="uni0434" unicode="&#x434;" horiz-adv-x="576" 
d="M26 -104q-6 6 -6 16v124q0 10 6 16t16 6h3q93 2 93 317v123q0 10 6 16t16 6h288q10 0 16 -6t6 -16v-438h49q10 0 16 -6t6 -16v-126q0 -10 -6 -16t-16 -6h-17q-10 0 -16 6t-6 16v88h-399v-88q0 -10 -6 -16t-16 -6h-17q-10 0 -16 6zM409 60v402h-210v-94q0 -227 -66 -310z
" />
    <glyph glyph-name="uni0435" unicode="&#x435;" horiz-adv-x="546" 
d="M121 52.5q-58 62.5 -66 167.5l-1 40l1 40q8 104 65.5 167t153.5 63q104 0 162.5 -69t58.5 -189v-15q0 -10 -6.5 -16t-16.5 -6h-356v-10q2 -47 21.5 -87.5t54.5 -65t82 -24.5q55 0 89.5 21.5t49.5 43.5q9 12 13.5 15t16.5 3h16q9 0 15 -5t6 -13q0 -21 -26.5 -50.5
t-73.5 -51t-106 -21.5q-95 0 -153 62.5zM434 291v4q0 77 -43.5 127t-116.5 50t-115.5 -50t-42.5 -127v-4h318z" />
    <glyph glyph-name="uni0436" unicode="&#x436;" horiz-adv-x="749" 
d="M724 14q0 -14 -19 -14h-26q-15 0 -26 14l-158 223h-89v-215q0 -10 -6 -16t-16 -6h-17q-10 0 -16 6t-6 16v215h-89l-160 -223q-9 -14 -26 -14h-26q-19 0 -19 14q0 5 5 13l175 246l-156 221q-4 7 -4 12q0 14 19 14h20q15 0 26 -15l147 -210h88v203q0 10 6 16t16 6h17
q10 0 16 -6t6 -16v-203h84l149 210q11 15 26 15h20q9 0 14.5 -3.5t5.5 -10.5q0 -4 -5 -12l-156 -221l175 -246q5 -6 5 -13z" />
    <glyph glyph-name="uni0437" unicode="&#x437;" horiz-adv-x="492" 
d="M133 12.5q-45 22.5 -66 55t-21 63.5q0 9 6 14.5t15 5.5h17q19 0 24 -21q12 -45 49.5 -63.5t98.5 -18.5q58 0 96.5 24t38.5 72q0 96 -109 96h-54q-10 0 -16 6t-6 16v14q0 10 6 16t16 6h47q96 0 96 77q0 41 -29.5 69t-95.5 28q-63 0 -91 -22t-40 -70q-5 -21 -24 -21h-17
q-9 0 -15 5.5t-6 14.5q0 66 51 108.5t142 42.5q65 0 107 -22.5t60.5 -56t18.5 -66.5q0 -43 -13 -67t-47 -42q44 -17 62 -50.5t18 -84.5q0 -75 -57.5 -113t-148.5 -38q-68 0 -113 22.5z" />
    <glyph glyph-name="uni0438" unicode="&#x438;" horiz-adv-x="596" 
d="M509 514q6 -6 6 -13v-479q0 -10 -6 -16t-16 -6h-17q-10 0 -16 6t-6 16v396l-308 -403q-11 -15 -26 -15h-19q-8 0 -14 6t-6 14v478q0 10 6 16t16 6h17q10 0 16 -6t6 -16v-396l308 403q11 15 26 15h19q8 0 14 -6z" />
    <glyph glyph-name="uni0439" unicode="&#x439;" horiz-adv-x="596" 
d="M509 514q6 -6 6 -13v-479q0 -10 -6 -16t-16 -6h-17q-10 0 -16 6t-6 16v396l-308 -403q-11 -15 -26 -15h-19q-8 0 -14 6t-6 14v478q0 10 6 16t16 6h17q10 0 16 -6t6 -16v-396l308 403q11 15 26 15h19q8 0 14 -6zM189.5 623q-31.5 33 -31.5 83q0 8 5 13.5t14 5.5h15
q9 0 14 -5.5t5 -13.5q0 -28 19.5 -47t67.5 -19t67.5 19t19.5 47q0 8 5 13.5t14 5.5h15q9 0 14 -5.5t5 -13.5q0 -50 -31.5 -83t-108.5 -33t-108.5 33z" />
    <glyph glyph-name="uni043A" unicode="&#x43a;" horiz-adv-x="506" 
d="M481 14q0 -14 -19 -14h-26q-15 0 -26 14l-158 221h-110v-213q0 -10 -6 -16t-16 -6h-17q-10 0 -16 6t-6 16v476q0 10 6 16t16 6h17q10 0 16 -6t6 -16v-203h107l147 210q11 15 26 15h20q9 0 14.5 -3.5t5.5 -10.5q0 -4 -5 -12l-155 -222l174 -245q5 -6 5 -13z" />
    <glyph glyph-name="uni043B" unicode="&#x43b;" horiz-adv-x="561" 
d="M31.5 6.5q-6.5 6.5 -6.5 16.5v16q0 9 5.5 15t14.5 6q51 0 78 74t27 241v123q0 10 6 16t16 6h286q10 0 16 -6t6 -16v-476q0 -10 -6 -16t-16 -6h-17q-10 0 -16 6t-6 16v440h-208v-94q0 -368 -163 -368q-10 0 -16.5 6.5z" />
    <glyph glyph-name="uni043C" unicode="&#x43c;" horiz-adv-x="664" 
d="M577 514q6 -6 6 -13v-479q0 -10 -6 -16t-16 -6h-17q-10 0 -16 6t-6 16v374l-146 -283q-8 -14 -14.5 -21t-19.5 -7h-20q-13 0 -19.5 7t-14.5 21l-146 275v-366q0 -10 -6 -16t-16 -6h-17q-10 0 -16 6t-6 16v479q0 7 6 13t14 6h23q15 0 23 -15l185 -350l185 350q8 15 23 15
h23q8 0 14 -6z" />
    <glyph glyph-name="uni043D" unicode="&#x43d;" horiz-adv-x="596" 
d="M87 6q-6 6 -6 16v476q0 10 6 16t16 6h17q10 0 16 -6t6 -16v-203h312v203q0 10 6 16t16 6h17q10 0 16 -6t6 -16v-476q0 -10 -6 -16t-16 -6h-17q-10 0 -16 6t-6 16v215h-312v-215q0 -10 -6 -16t-16 -6h-17q-10 0 -16 6z" />
    <glyph glyph-name="uni043E" unicode="&#x43e;" horiz-adv-x="558" 
d="M117.5 53.5q-57.5 63.5 -60.5 164.5l-1 42l1 42q3 101 60.5 164.5t161.5 63.5t161.5 -63.5t60.5 -164.5q1 -10 1 -42t-1 -42q-3 -101 -60.5 -164.5t-161.5 -63.5t-161.5 63.5zM393.5 93.5q43.5 45.5 46.5 129.5q1 10 1 37t-1 37q-3 84 -46.5 129.5t-114.5 45.5
t-114.5 -45.5t-46.5 -129.5l-1 -37l1 -37q3 -84 46.5 -129.5t114.5 -45.5t114.5 45.5z" />
    <glyph glyph-name="uni043F" unicode="&#x43f;" horiz-adv-x="576" 
d="M87 6q-6 6 -6 16v476q0 10 6 16t16 6h370q10 0 16 -6t6 -16v-476q0 -10 -6 -16t-16 -6h-17q-10 0 -16 6t-6 16v440h-292v-440q0 -10 -6 -16t-16 -6h-17q-10 0 -16 6z" />
    <glyph glyph-name="uni0440" unicode="&#x440;" horiz-adv-x="581" 
d="M88 -184q-6 6 -6 16v666q0 10 6 16t16 6h17q10 0 16 -6t6 -16v-47q58 79 168 79q108 0 159.5 -68.5t54.5 -168.5q1 -10 1 -33t-1 -33q-3 -100 -54.5 -168.5t-159.5 -68.5q-109 0 -168 79v-237q0 -10 -6 -16t-16 -6h-17q-10 0 -16 6zM423.5 99.5q37.5 51.5 40.5 132.5
q1 10 1 28q0 93 -36 152.5t-124 59.5q-79 0 -119 -52.5t-43 -123.5l-1 -39l1 -39q1 -43 19 -81.5t54 -63.5t89 -25q81 0 118.5 51.5z" />
    <glyph glyph-name="uni0441" unicode="&#x441;" horiz-adv-x="536" 
d="M117 50.5q-57 60.5 -60 169.5l-1 40l1 40q3 109 60 169.5t161 60.5q66 0 112.5 -23.5t69.5 -60t25 -75.5q1 -9 -6 -15.5t-16 -6.5h-14q-10 0 -14.5 4.5t-9.5 16.5q-20 55 -56 78.5t-91 23.5q-72 0 -114.5 -43.5t-45.5 -133.5l-1 -35l1 -35q3 -90 45.5 -133.5t114.5 -43.5
q55 0 91 23.5t56 78.5q5 12 9.5 16.5t14.5 4.5h14q9 0 16 -6.5t6 -15.5q-2 -39 -25 -75.5t-69.5 -60t-112.5 -23.5q-104 0 -161 60.5z" />
    <glyph glyph-name="uni0442" unicode="&#x442;" horiz-adv-x="497" 
d="M224 6q-6 6 -6 16v440h-183q-10 0 -16 6t-6 16v14q0 10 6 16t16 6h427q10 0 16 -6t6 -16v-14q0 -10 -6 -16t-16 -6h-183v-440q0 -10 -6 -16t-16 -6h-17q-10 0 -16 6z" />
    <glyph glyph-name="uni0443" unicode="&#x443;" horiz-adv-x="529" 
d="M492 514q6 -6 6 -14q0 -5 -6 -20l-190 -446l-14 -34q-24 -59 -43.5 -96.5t-49 -65.5t-68.5 -28h-34q-10 0 -16 6t-6 16v14q0 10 6 16t16 6h23q24 0 38.5 10t26.5 31.5t32 68.5l22 52l-194 450q-6 15 -6 20q0 8 6 14t14 6h19q16 0 23 -15l171 -398l169 398q7 15 23 15h18
q8 0 14 -6z" />
    <glyph glyph-name="uni0444" unicode="&#x444;" horiz-adv-x="679" 
d="M315 -184q-6 6 -6 16v168q-124 0 -185.5 62t-66.5 166l-1 32l1 32q5 104 66.5 166t185.5 62v168q0 10 6 16t16 6h17q10 0 16 -6t6 -16v-168q124 0 185.5 -62t66.5 -166q1 -10 1 -32t-1 -32q-5 -104 -66.5 -166t-185.5 -62v-168q0 -10 -6 -16t-16 -6h-17q-10 0 -16 6z
M309 462q-182 0 -191 -175l-1 -27l1 -27q9 -175 191 -175v404zM561 233q1 10 1 27t-1 27q-9 175 -191 175v-404q182 0 191 175z" />
    <glyph glyph-name="uni0445" unicode="&#x445;" horiz-adv-x="518" 
d="M41 6q-6 6 -6 14q0 10 8 20l176 226l-167 214q-8 10 -8 20q0 8 6 14t14 6h21q9 0 13.5 -3.5t11.5 -11.5l150 -193l150 192q1 1 5 6t9 7.5t11 2.5h20q8 0 14 -6t6 -14q0 -10 -8 -20l-169 -217l176 -223q8 -10 8 -20q0 -8 -6 -14t-14 -6h-21q-14 0 -25 15l-158 202
l-158 -202q-7 -8 -11.5 -11.5t-13.5 -3.5h-20q-8 0 -14 6z" />
    <glyph glyph-name="uni0446" unicode="&#x446;" horiz-adv-x="601" 
d="M511 -124q-6 6 -6 16v108h-402q-10 0 -16 6t-6 16v476q0 10 6 16t16 6h17q10 0 16 -6t6 -16v-440h292v440q0 10 6 16t16 6h17q10 0 16 -6t6 -16l-1 -440h50q10 0 16 -6t6 -16v-144q0 -10 -6 -16t-16 -6h-17q-10 0 -16 6z" />
    <glyph glyph-name="uni0447" unicode="&#x447;" horiz-adv-x="527" 
d="M391 6q-6 6 -6 16v204q-28 -28 -67.5 -40.5t-92.5 -12.5q-180 0 -180 149v176q0 10 6 16t16 6h17q10 0 16 -6t6 -16v-171q0 -49 30 -72.5t93 -23.5q76 0 116 18.5t40 61.5v187q0 10 6 16t16 6h17q10 0 16 -6t6 -16v-476q0 -10 -6 -16t-16 -6h-17q-10 0 -16 6z" />
    <glyph glyph-name="uni0448" unicode="&#x448;" horiz-adv-x="769" 
d="M87 6q-6 6 -6 16v476q0 10 6 16t16 6h17q10 0 16 -6t6 -16v-440h212v440q0 10 6 16t16 6h17q10 0 16 -6t6 -16v-440h212v440q0 10 6 16t16 6h17q10 0 16 -6t6 -16v-476q0 -10 -6 -16t-16 -6h-563q-10 0 -16 6z" />
    <glyph glyph-name="uni0449" unicode="&#x449;" horiz-adv-x="795" 
d="M705 -124q-6 6 -6 16v108h-596q-10 0 -16 6t-6 16v476q0 10 6 16t16 6h17q10 0 16 -6t6 -16v-440h212v440q0 10 6 16t16 6h17q10 0 16 -6t6 -16v-440h212v440q0 10 6 16t16 6h17q10 0 16 -6t6 -16v-440h50q10 0 16 -6t6 -16v-144q0 -10 -6 -16t-16 -6h-17q-10 0 -16 6z
" />
    <glyph glyph-name="uni044A" unicode="&#x44a;" horiz-adv-x="539" 
d="M170 6q-6 6 -6 16v440h-129q-10 0 -16 6t-6 16v14q0 10 6 16t16 6h168q10 0 16 -6t6 -16v-152h100q189 0 189 -177q0 -88 -49.5 -128.5t-154.5 -40.5h-124q-10 0 -16 6zM319 58q71 0 102.5 25t31.5 86t-31.5 90t-102.5 29h-94v-230h94z" />
    <glyph glyph-name="uni044B" unicode="&#x44b;" horiz-adv-x="659" 
d="M87 6q-6 6 -6 16v476q0 10 6 16t16 6h17q10 0 16 -6t6 -16v-152h110q189 0 189 -177q0 -88 -49.5 -128.5t-154.5 -40.5h-134q-10 0 -16 6zM523 6q-6 6 -6 16v476q0 10 6 16t16 6h17q10 0 16 -6t6 -16v-476q0 -10 -6 -16t-16 -6h-17q-10 0 -16 6zM246 58q71 0 102.5 25
t31.5 86t-31.5 90t-102.5 29h-104v-230h104z" />
    <glyph glyph-name="uni044C" unicode="&#x44c;" horiz-adv-x="476" 
d="M87 6q-6 6 -6 16v476q0 10 6 16t16 6h17q10 0 16 -6t6 -16v-152h120q189 0 189 -177q0 -88 -49.5 -128.5t-154.5 -40.5h-144q-10 0 -16 6zM256 58q71 0 102.5 25t31.5 86t-31.5 90t-102.5 29h-114v-230h114z" />
    <glyph glyph-name="uni044D" unicode="&#x44d;" horiz-adv-x="536" 
d="M145.5 13.5q-46.5 23.5 -69.5 60t-25 75.5q-1 9 6 15.5t16 6.5h14q10 0 14.5 -4.5t9.5 -16.5q20 -55 56 -78.5t91 -23.5q72 0 114.5 43.5t45.5 133.5v6h-214q-10 0 -16 6t-6 16v14q0 10 6 16t16 6h214v6q-3 90 -45.5 133.5t-114.5 43.5q-55 0 -91 -23.5t-56 -78.5
q-5 -12 -9.5 -16.5t-14.5 -4.5h-14q-9 0 -16 6.5t-6 15.5q2 39 25 75.5t69.5 60t112.5 23.5q104 0 161 -60.5t60 -169.5q1 -10 1 -40t-1 -40q-3 -109 -60 -169.5t-161 -60.5q-66 0 -112.5 23.5z" />
    <glyph glyph-name="uni044E" unicode="&#x44e;" horiz-adv-x="763" 
d="M707 260q0 -32 -1 -42q-3 -101 -60.5 -164.5t-161.5 -63.5t-161.5 63.5t-60.5 164.5q0 12 -1 19h-119v-215q0 -10 -6 -16t-16 -6h-17q-10 0 -16 6t-6 16v476q0 10 6 16t16 6h17q10 0 16 -6t6 -16v-203h120v7q3 101 60.5 164.5t161.5 63.5t161.5 -63.5t60.5 -164.5
q1 -10 1 -42zM646 260q0 27 -1 37q-3 84 -46.5 129.5t-114.5 45.5t-114.5 -45.5t-46.5 -129.5l-1 -37l1 -37q3 -84 46.5 -129.5t114.5 -45.5t114.5 45.5t46.5 129.5q1 10 1 37z" />
    <glyph glyph-name="uni044F" unicode="&#x44f;" horiz-adv-x="519" 
d="M432 514q6 -6 6 -16v-476q0 -10 -6 -16t-16 -6h-17q-10 0 -16 6t-6 16v172h-121l-126 -179q-13 -15 -27 -15h-18q-8 0 -14 6t-6 14q0 11 8 20l116 166q-56 14 -83.5 55t-27.5 100q0 83 47 121t147 38h144q10 0 16 -6zM377 462h-114q-66 0 -95 -22.5t-29 -78.5
q0 -50 28.5 -79.5t85.5 -29.5h124v210z" />
    <glyph glyph-name="uni0450" unicode="&#x450;" horiz-adv-x="546" 
d="M121 52.5q-58 62.5 -66 167.5l-1 40l1 40q8 104 65.5 167t153.5 63q104 0 162.5 -69t58.5 -189v-15q0 -10 -6.5 -16t-16.5 -6h-356v-10q2 -47 21.5 -87.5t54.5 -65t82 -24.5q55 0 89.5 21.5t49.5 43.5q9 12 13.5 15t16.5 3h16q9 0 15 -5t6 -13q0 -21 -26.5 -50.5
t-73.5 -51t-106 -21.5q-95 0 -153 62.5zM434 291v4q0 77 -43.5 127t-116.5 50t-115.5 -50t-42.5 -127v-4h318zM261 597q-6 2 -14 8l-109 89q-5 5 -5 12q0 19 19 19h41q14 0 21 -3.5t16 -14.5l69 -83q5 -5 5 -13q0 -16 -16 -16h-10q-11 0 -17 2z" />
    <glyph glyph-name="uni0451" unicode="&#x451;" horiz-adv-x="546" 
d="M121 52.5q-58 62.5 -66 167.5l-1 40l1 40q8 104 65.5 167t153.5 63q104 0 162.5 -69t58.5 -189v-15q0 -10 -6.5 -16t-16.5 -6h-356v-10q2 -47 21.5 -87.5t54.5 -65t82 -24.5q55 0 89.5 21.5t49.5 43.5q9 12 13.5 15t16.5 3h16q9 0 15 -5t6 -13q0 -21 -26.5 -50.5
t-73.5 -51t-106 -21.5q-95 0 -153 62.5zM434 291v4q0 77 -43.5 127t-116.5 50t-115.5 -50t-42.5 -127v-4h318zM167 633q-6 6 -6 16v38q0 10 6 16.5t16 6.5h38q10 0 16.5 -6.5t6.5 -16.5v-38q0 -10 -6.5 -16t-16.5 -6h-38q-10 0 -16 6zM320 633q-6 6 -6 16v38q0 10 6 16.5
t16 6.5h38q10 0 16.5 -6.5t6.5 -16.5v-38q0 -10 -6.5 -16t-16.5 -6h-38q-10 0 -16 6z" />
    <glyph glyph-name="uni0452" unicode="&#x452;" horiz-adv-x="573" 
d="M252 -184q-6 6 -6 16v14q0 10 6 16t16 6h4q77 0 116 34.5t51.5 91.5t12.5 144v103q0 81 -39.5 126t-113.5 45q-72 0 -115 -45.5t-43 -125.5v-219q0 -10 -6 -16t-16 -6h-17q-10 0 -16 6t-6 16v519h-58q-10 0 -16 6t-6 16v14q0 10 6 16t16 6h58v89q0 10 6 16t16 6h17
q10 0 16 -6t6 -16v-89h188q10 0 16 -6t6 -16v-14q0 -10 -6 -16t-16 -6h-188v-150q30 39 68.5 59t99.5 20q98 0 151 -62.5t53 -161.5v-108q0 -155 -52.5 -241.5t-188.5 -86.5h-4q-10 0 -16 6z" />
    <glyph glyph-name="uni0453" unicode="&#x453;" horiz-adv-x="418" 
d="M87 6q-6 6 -6 16v476q0 10 6 16t16 6h283q10 0 16 -6t6 -16v-14q0 -10 -6 -16t-16 -6h-244v-440q0 -10 -6 -16t-16 -6h-17q-10 0 -16 6zM233 611q0 8 5 13l69 83q9 11 16 14.5t21 3.5h41q19 0 19 -19q0 -7 -5 -12l-109 -89q-8 -6 -14 -8t-17 -2h-10q-16 0 -16 16z" />
    <glyph glyph-name="uni0454" unicode="&#x454;" horiz-adv-x="536" 
d="M117 50.5q-57 60.5 -60 169.5l-1 40l1 40q3 109 60 169.5t161 60.5q66 0 112.5 -23.5t69.5 -60t25 -75.5q1 -9 -6 -15.5t-16 -6.5h-14q-10 0 -14.5 4.5t-9.5 16.5q-20 55 -56 78.5t-91 23.5q-72 0 -114.5 -43.5t-45.5 -133.5v-6h214q10 0 16 -6t6 -16v-14q0 -10 -6 -16
t-16 -6h-214v-6q3 -90 45.5 -133.5t114.5 -43.5q55 0 91 23.5t56 78.5q5 12 9.5 16.5t14.5 4.5h14q9 0 16 -6.5t6 -15.5q-2 -39 -25 -75.5t-69.5 -60t-112.5 -23.5q-104 0 -161 60.5z" />
    <glyph glyph-name="uni0455" unicode="&#x455;" horiz-adv-x="492" 
d="M136.5 12q-44.5 22 -67 50t-22.5 45q0 9 7 14.5t15 5.5h15q7 0 11.5 -2.5t10.5 -10.5q22 -31 53.5 -48.5t86.5 -17.5q62 0 100 23.5t38 67.5q0 27 -15.5 44t-50 29.5t-102.5 28.5q-89 20 -121.5 55t-32.5 89q0 37 20.5 70t61 54t97.5 21q60 0 101.5 -20.5t62 -47.5
t20.5 -44q0 -9 -6.5 -14.5t-15.5 -5.5h-15q-14 0 -22 13q-20 30 -45.5 45.5t-79.5 15.5q-58 0 -88 -24t-30 -63q0 -24 12 -40t45 -29.5t96 -27.5q93 -21 131 -56t38 -93q0 -41 -23 -75t-68 -54t-108 -20q-65 0 -109.5 22z" />
    <glyph glyph-name="uni0456" unicode="&#x456;" horiz-adv-x="223" 
d="M76 633q-6 6 -6 16v38q0 10 6 16.5t16 6.5h38q10 0 16.5 -6.5t6.5 -16.5v-38q0 -10 -6.5 -16t-16.5 -6h-38q-10 0 -16 6zM87 6q-6 6 -6 16v476q0 10 6 16t16 6h17q10 0 16 -6t6 -16v-476q0 -10 -6 -16t-16 -6h-17q-10 0 -16 6z" />
    <glyph glyph-name="uni0457" unicode="&#x457;" horiz-adv-x="223" 
d="M87 6q-6 6 -6 16v476q0 10 6 16t16 6h17q10 0 16 -6t6 -16v-476q0 -10 -6 -16t-16 -6h-17q-10 0 -16 6zM0 633q-6 6 -6 16v38q0 10 6 16.5t16 6.5h38q10 0 16.5 -6.5t6.5 -16.5v-38q0 -10 -6.5 -16t-16.5 -6h-38q-10 0 -16 6zM153 633q-6 6 -6 16v38q0 10 6 16.5t16 6.5
h38q10 0 16.5 -6.5t6.5 -16.5v-38q0 -10 -6.5 -16t-16.5 -6h-38q-10 0 -16 6z" />
    <glyph glyph-name="uni0458" unicode="&#x458;" horiz-adv-x="233" 
d="M85 633q-6 6 -6 16v38q0 10 6 16.5t16 6.5h38q10 0 16.5 -6.5t6.5 -16.5v-38q0 -10 -6.5 -16t-16.5 -6h-38q-10 0 -16 6zM-20 -184q-6 6 -6 16v14q0 10 6 16t16 6h4q55 0 72.5 28t17.5 82v520q0 10 6 16t16 6h17q10 0 16 -6t6 -16v-520q0 -79 -33 -123.5t-118 -44.5h-4
q-10 0 -16 6z" />
    <glyph glyph-name="uni0459" unicode="&#x459;" horiz-adv-x="744" 
d="M405 6q-6 6 -6 16v440h-179v-94q0 -188 -44 -274.5t-128 -92.5q-10 -1 -16.5 6t-6.5 17v16q0 18 20 21q56 9 85.5 79.5t29.5 234.5v123q0 10 6 16t16 6h256q10 0 16 -6t6 -16v-152h70q189 0 189 -177q0 -88 -49.5 -128.5t-154.5 -40.5h-94q-10 0 -16 6zM524 58
q71 0 102.5 25t31.5 86t-31.5 90t-102.5 29h-64v-230h64z" />
    <glyph glyph-name="uni045A" unicode="&#x45a;" horiz-adv-x="759" 
d="M87 6q-6 6 -6 16v476q0 10 6 16t16 6h17q10 0 16 -6t6 -16v-203h272v203q0 10 6 16t16 6h17q10 0 16 -6t6 -16v-152h70q189 0 189 -177q0 -88 -49.5 -128.5t-154.5 -40.5h-94q-10 0 -16 6t-6 16v215h-272v-215q0 -10 -6 -16t-16 -6h-17q-10 0 -16 6zM539 58
q71 0 102.5 25t31.5 86t-31.5 90t-102.5 29h-64v-230h64z" />
    <glyph glyph-name="uni045B" unicode="&#x45b;" horiz-adv-x="590" 
d="M87 6q-6 6 -6 16v519h-58q-10 0 -16 6t-6 16v14q0 10 6 16t16 6h58v89q0 10 6 16t16 6h17q10 0 16 -6t6 -16v-89h188q10 0 16 -6t6 -16v-14q0 -10 -6 -16t-16 -6h-188v-150q30 39 68.5 59t99.5 20q98 0 151 -62.5t53 -161.5v-224q0 -10 -6 -16t-16 -6h-17q-10 0 -16 6
t-6 16v219q0 81 -39.5 126t-113.5 45q-72 0 -115 -45.5t-43 -125.5v-219q0 -10 -6 -16t-16 -6h-17q-10 0 -16 6z" />
    <glyph glyph-name="uni045C" unicode="&#x45c;" horiz-adv-x="506" 
d="M481 14q0 -14 -19 -14h-26q-15 0 -26 14l-158 221h-110v-213q0 -10 -6 -16t-16 -6h-17q-10 0 -16 6t-6 16v476q0 10 6 16t16 6h17q10 0 16 -6t6 -16v-203h107l147 210q11 15 26 15h20q9 0 14.5 -3.5t5.5 -10.5q0 -4 -5 -12l-155 -222l174 -245q5 -6 5 -13zM224 611
q0 8 5 13l69 83q9 11 16 14.5t21 3.5h41q19 0 19 -19q0 -7 -5 -12l-109 -89q-8 -6 -14 -8t-17 -2h-10q-16 0 -16 16z" />
    <glyph glyph-name="uni045D" unicode="&#x45d;" horiz-adv-x="596" 
d="M509 514q6 -6 6 -13v-479q0 -10 -6 -16t-16 -6h-17q-10 0 -16 6t-6 16v396l-308 -403q-11 -15 -26 -15h-19q-8 0 -14 6t-6 14v478q0 10 6 16t16 6h17q10 0 16 -6t6 -16v-396l308 403q11 15 26 15h19q8 0 14 -6zM280 597q-6 2 -14 8l-109 89q-5 5 -5 12q0 19 19 19h41
q14 0 21 -3.5t16 -14.5l69 -83q5 -5 5 -13q0 -16 -16 -16h-10q-11 0 -17 2z" />
    <glyph glyph-name="uni045E" unicode="&#x45e;" horiz-adv-x="529" 
d="M492 514q6 -6 6 -14q0 -5 -6 -20l-190 -446l-14 -34q-24 -59 -43.5 -96.5t-49 -65.5t-68.5 -28h-34q-10 0 -16 6t-6 16v14q0 10 6 16t16 6h23q24 0 38.5 10t26.5 31.5t32 68.5l22 52l-194 450q-6 15 -6 20q0 8 6 14t14 6h19q16 0 23 -15l171 -398l169 398q7 15 23 15h18
q8 0 14 -6zM153.5 623q-31.5 33 -31.5 83q0 8 5 13.5t14 5.5h15q9 0 14 -5.5t5 -13.5q0 -28 19.5 -47t67.5 -19t67.5 19t19.5 47q0 8 5 13.5t14 5.5h15q9 0 14 -5.5t5 -13.5q0 -50 -31.5 -83t-108.5 -33t-108.5 33z" />
    <glyph glyph-name="uni045F" unicode="&#x45f;" horiz-adv-x="576" 
d="M263 -124q-6 6 -6 16v108h-154q-10 0 -16 6t-6 16v476q0 10 6 16t16 6h17q10 0 16 -6t6 -16v-440h292v440q0 10 6 16t16 6h17q10 0 16 -6t6 -16v-476q0 -10 -6 -16t-16 -6h-155v-108q0 -10 -6 -16t-16 -6h-17q-10 0 -16 6z" />
    <glyph glyph-name="uni0462" unicode="&#x462;" horiz-adv-x="640" 
d="M545.5 369.5q54.5 -53.5 54.5 -155.5q0 -54 -23 -103t-70.5 -80t-116.5 -31h-214q-10 0 -16 6t-6 16v508h-105q-10 0 -16 6t-6 16v15q0 10 6 16.5t16 6.5h105v88q0 10 6 16t16 6h18q10 0 16.5 -6t6.5 -16v-88h200q11 0 17 -6t6 -17v-15q0 -10 -6.5 -16t-16.5 -6h-200
v-107h173q101 0 155.5 -53.5zM495.5 102.5q41.5 42.5 41.5 114.5q0 73 -38.5 109.5t-118.5 36.5h-163v-303h163q74 0 115.5 42.5z" />
    <glyph glyph-name="uni0463" unicode="&#x463;" horiz-adv-x="481" 
d="M456 169q0 -88 -49.5 -128.5t-154.5 -40.5h-124q-10 0 -16 6t-6 16v440h-59q-10 0 -16 6t-6 16v14q0 10 6 16t16 6h59v168q0 10 6 16t16 6h17q10 0 16 -6t6 -16v-168h145q10 0 16 -6t6 -16v-14q0 -10 -6 -16t-16 -6h-145v-116h100q189 0 189 -177zM363.5 83
q31.5 25 31.5 86t-31.5 90t-102.5 29h-94v-230h94q71 0 102.5 25z" />
    <glyph glyph-name="uni046A" unicode="&#x46a;" horiz-adv-x="851" 
d="M51.5 7q-6.5 7 -6.5 17q0 3 2 11l88 233q25 66 64 91t103 25h52l-234 283q-4 5 -4 13t6 14t14 6h580q8 0 14 -6t6 -14t-4 -13l-237 -283h54q64 0 103 -25t64 -91l88 -233q2 -8 2 -11q0 -10 -6.5 -17t-16.5 -7h-20q-6 0 -11.5 3.5t-7.5 9.5l-88 233q-18 45 -40 62t-67 17
h-92v-303q0 -10 -6 -16t-16 -6h-18q-10 0 -16.5 6t-6.5 16v303h-92q-45 0 -67 -17t-40 -62l-88 -233q-2 -6 -7.5 -9.5t-11.5 -3.5h-20q-10 0 -16.5 7zM426 390l210 250h-418z" />
    <glyph glyph-name="uni046B" unicode="&#x46b;" horiz-adv-x="697" 
d="M0 14q0 7 5 13l120 189q29 46 60.5 62.5t74.5 16.5h18l-155 189q-6 7 -6 16t6 14.5t14 5.5h420q9 0 14.5 -5.5t5.5 -13.5q0 -7 -5 -14l-153 -192h18q43 0 74.5 -16.5t60.5 -62.5l120 -189q5 -6 5 -13q0 -14 -19 -14h-26q-15 0 -26 14l-103 168q-20 32 -41.5 43.5
t-57.5 11.5h-45v-215q0 -10 -6 -16t-16 -6h-17q-10 0 -16 6t-6 16v215h-45q-36 0 -57.5 -11.5t-41.5 -43.5l-103 -168q-11 -14 -26 -14h-26q-19 0 -19 14zM349 295l134 167h-269z" />
    <glyph glyph-name="uni0472" unicode="&#x472;" horiz-adv-x="662" 
d="M597 350q0 -24 -2 -84q-7 -276 -264 -276t-264 276q-1 30 -1 84t1 84q4 136 74 206t190 70t190 -70t74 -206q2 -60 2 -84zM188 595.5q-54 -54.5 -58 -166.5q-1 -16 -1 -44h404q0 28 -1 44q-4 112 -58 166.5t-143 54.5t-143 -54.5zM474.5 104.5q53.5 54.5 57.5 166.5
q1 20 1 54h-404q0 -34 1 -54q4 -112 57.5 -166.5t143.5 -54.5t143.5 54.5z" />
    <glyph glyph-name="uni0473" unicode="&#x473;" horiz-adv-x="558" 
d="M502 260q0 -32 -1 -42q-3 -101 -60.5 -164.5t-161.5 -63.5t-161.5 63.5t-60.5 164.5l-1 42l1 42q3 101 60.5 164.5t161.5 63.5t161.5 -63.5t60.5 -164.5q1 -10 1 -42zM164.5 426.5q-43.5 -45.5 -46.5 -129.5v-8h322v8q-3 84 -46.5 129.5t-114.5 45.5t-114.5 -45.5z
M393.5 93.5q43.5 45.5 46.5 129.5v8h-322v-8q3 -84 46.5 -129.5t114.5 -45.5t114.5 45.5z" />
    <glyph glyph-name="uni0474" unicode="&#x474;" horiz-adv-x="644" 
d="M271 24l-232 645q-2 6 -2 9q0 9 5.5 15.5t14.5 6.5h21q15 0 23 -19l219 -609l143 455q31 100 66.5 141.5t93.5 41.5h6q15 0 15 -22v-16q0 -9 -5.5 -15.5t-12.5 -6.5h-3q-23 0 -39.5 -12.5t-30.5 -42t-32 -84.5l-154 -487q-9 -24 -34 -24h-28q-25 0 -34 24z" />
    <glyph glyph-name="uni0475" unicode="&#x475;" horiz-adv-x="547" 
d="M219 25l-181 464l-2 11q0 8 6 14t14 6h21q9 0 14.5 -5t7.5 -10l166 -431l118 327q23 63 53 90.5t85 28.5h4q10 0 16 -6t6 -16v-14q0 -10 -6 -16t-16 -6q-31 0 -48.5 -16t-31.5 -54l-134 -367q-8 -25 -38 -25h-16q-28 0 -38 25z" />
    <glyph glyph-name="uni0490" unicode="&#x490;" horiz-adv-x="505" 
d="M498.5 834q6.5 -6 6.5 -16v-156q0 -10 -6.5 -16t-16.5 -6h-325v-618q0 -10 -6.5 -16t-16.5 -6h-18q-10 0 -16 6t-6 16v655q0 10 6 16.5t16 6.5h326v118q0 10 6 16t16 6h18q10 0 16.5 -6z" />
    <glyph glyph-name="uni0491" unicode="&#x491;" horiz-adv-x="418" 
d="M402 644q6 -6 6 -16v-144q0 -10 -6 -16t-16 -6h-244v-440q0 -10 -6 -16t-16 -6h-17q-10 0 -16 6t-6 16v476q0 10 6 16t16 6h244v108q0 10 6 16t16 6h17q10 0 16 -6z" />
    <glyph glyph-name="uni0492" unicode="&#x492;" horiz-adv-x="525" 
d="M499 694q6 -6 6 -17v-15q0 -10 -6.5 -16t-16.5 -6h-325v-261h155q10 0 16 -6t6 -16v-14q0 -10 -6 -16t-16 -6h-155v-299q0 -10 -6.5 -16t-16.5 -6h-18q-10 0 -16 6t-6 16v299h-57q-10 0 -16 6t-6 16v14q0 10 6 16t16 6h57v298q0 10 6 16.5t16 6.5h366q11 0 17 -6z" />
    <glyph glyph-name="uni0493" unicode="&#x493;" horiz-adv-x="418" 
d="M402 514q6 -6 6 -16v-14q0 -10 -6 -16t-16 -6h-244v-173h129q10 0 16 -6t6 -16v-14q0 -10 -6 -16t-16 -6h-129v-209q0 -10 -6 -16t-16 -6h-17q-10 0 -16 6t-6 16v209h-55q-10 0 -16 6t-6 16v14q0 10 6 16t16 6h55v209q0 10 6 16t16 6h283q10 0 16 -6z" />
    <glyph glyph-name="uni0494" unicode="&#x494;" horiz-adv-x="593" 
d="M499.5 401q53.5 -52 53.5 -150v-108q0 -99 -58 -158.5t-181 -59.5h-4q-10 0 -16 6t-6 16v16q0 10 6 16t16 6h4q98 0 137 42t39 116v103q0 75 -37 111t-118 36q-71 0 -124.5 -30.5t-53.5 -110.5v-230q0 -10 -6.5 -16t-16.5 -6h-18q-10 0 -16 6t-6 16v655q0 10 6 16.5
t16 6.5h366q11 0 17 -6t6 -17v-15q0 -10 -6.5 -16t-16.5 -6h-325v-257q56 70 186 70q103 0 156.5 -52z" />
    <glyph glyph-name="uni0495" unicode="&#x495;" horiz-adv-x="482" 
d="M411.5 257.5q50.5 -62.5 50.5 -161.5v-18q0 -127 -52.5 -197.5t-188.5 -70.5h-4q-10 0 -16 6t-6 16v14q0 10 6 16t16 6h4q77 0 116 26.5t51.5 71t12.5 112.5v13q0 80 -37 125.5t-106 45.5q-57 0 -86.5 -16.5t-29.5 -52.5v-171q0 -10 -6 -16t-16 -6h-17q-10 0 -16 6t-6 16
v476q0 10 6 16t16 6h283q10 0 16 -6t6 -16v-14q0 -10 -6 -16t-16 -6h-244v-185q24 22 53.5 32.5t72.5 10.5q93 0 143.5 -62.5z" />
    <glyph glyph-name="uni0496" unicode="&#x496;" horiz-adv-x="973" 
d="M956.5 54q6.5 -6 6.5 -16v-156q0 -10 -6.5 -16t-16.5 -6h-18q-10 0 -16 6t-6 16v118h-43l-4 7l-4 6l-210 312h-129v-304q0 -9 -6 -15t-16 -6h-19q-10 0 -16 6t-6 16v303h-131l-208 -312q-8 -13 -23 -13h-17q-10 0 -16.5 7t-6.5 17q0 8 2 11l215 325l-195 307q-5 8 -5 13
q0 20 20 20h14q22 0 33 -15l191 -301l127 1v293q0 10 6 16t16 6h19q10 0 16 -6t6 -16v-293l125 -1l191 301q11 15 33 15h16q20 0 20 -20q0 -5 -5 -13l-195 -307l198 -300h47q10 0 16.5 -6z" />
    <glyph glyph-name="uni0497" unicode="&#x497;" horiz-adv-x="774" 
d="M768 52q6 -6 6 -16v-144q0 -10 -6 -16t-16 -6h-17q-10 0 -16 6t-6 16v108h-40v1q-10 1 -20 13l-158 223h-89v-215q0 -10 -6 -16t-16 -6h-17q-10 0 -16 6t-6 16v215h-89l-160 -223q-9 -14 -26 -14h-26q-19 0 -19 14q0 5 5 13l175 246l-156 221q-4 7 -4 12q0 14 19 14h20
q15 0 26 -15l147 -210h88v203q0 10 6 16t16 6h17q10 0 16 -6t6 -16v-203h84l149 210q11 15 26 15h20q9 0 14.5 -3.5t5.5 -10.5q0 -4 -5 -12l-156 -221l153 -215h55q10 0 16 -6z" />
    <glyph glyph-name="uni0498" unicode="&#x498;" horiz-adv-x="599" 
d="M484.5 60.5q-53.5 -53.5 -146.5 -66.5v-112q0 -10 -6.5 -16t-16.5 -6h-18q-10 0 -16 6t-6 16v108q-103 2 -165.5 49t-69.5 122v2q0 8 6 12.5t15 4.5h16q10 0 17 -4.5t10 -18.5q12 -49 59 -78t121 -29q51 0 95 17.5t70 50t26 75.5q0 67 -48 105t-130 38h-71q-10 0 -16 6
t-6 16v15q0 10 6 16.5t16 6.5h66q73 0 115.5 32.5t42.5 98.5q0 55 -47 89t-115 34q-72 0 -117.5 -26.5t-57.5 -82.5q-4 -21 -22 -21h-20q-9 0 -15.5 5.5t-5.5 14.5q7 80 69.5 125t168.5 45q74 0 124.5 -26t75.5 -67.5t25 -89.5q0 -51 -19.5 -92.5t-60.5 -66.5
q51 -25 78 -70.5t27 -104.5q0 -79 -53.5 -132.5z" />
    <glyph glyph-name="uni0499" unicode="&#x499;" horiz-adv-x="492" 
d="M408.5 39q-43.5 -37 -116.5 -46v-101q0 -10 -6 -16t-16 -6h-17q-10 0 -16 6t-6 16v98q-63 3 -104.5 25.5t-61 54t-19.5 61.5q0 9 6 14.5t15 5.5h17q19 0 24 -21q12 -45 49.5 -63.5t98.5 -18.5q58 0 96.5 24t38.5 72q0 96 -109 96h-54q-10 0 -16 6t-6 16v14q0 10 6 16
t16 6h47q96 0 96 77q0 41 -29.5 69t-95.5 28q-63 0 -91 -22t-40 -70q-5 -21 -24 -21h-17q-9 0 -15 5.5t-6 14.5q0 66 51 108.5t142 42.5q65 0 107 -22.5t60.5 -56t18.5 -66.5q0 -43 -13 -67t-47 -42q44 -18 62 -51t18 -85q0 -64 -43.5 -101z" />
    <glyph glyph-name="uni049A" unicode="&#x49a;" horiz-adv-x="645" 
d="M628.5 54q6.5 -6 6.5 -16v-156q0 -10 -6.5 -16t-16.5 -6h-18q-10 0 -16 6t-6 16v118h-43q-15 0 -23 13l-210 312h-139v-303q0 -10 -6.5 -16t-16.5 -6h-18q-10 0 -16 6t-6 16v655q0 10 6 16.5t16 6.5h18q11 0 17 -6t6 -17v-292l135 -1l191 301q11 15 33 15h16q20 0 20 -20
q0 -5 -5 -13l-195 -307l198 -300h62q10 0 16.5 -6z" />
    <glyph glyph-name="uni049B" unicode="&#x49b;" horiz-adv-x="537" 
d="M531 52q6 -6 6 -16v-144q0 -10 -6 -16t-16 -6h-17q-10 0 -16 6t-6 16v108h-40q-15 0 -26 14l-158 221h-110v-213q0 -10 -6 -16t-16 -6h-17q-10 0 -16 6t-6 16v476q0 10 6 16t16 6h17q10 0 16 -6t6 -16v-203h107l147 210q11 15 26 15h20q9 0 14.5 -3.5t5.5 -10.5
q0 -4 -5 -12l-155 -222l152 -214h61q10 0 16 -6z" />
    <glyph glyph-name="uni049C" unicode="&#x49c;" horiz-adv-x="614" 
d="M569 24q0 -10 -6.5 -17t-16.5 -7h-17q-15 0 -23 13l-210 312h-14v-100q0 -10 -6 -16t-16 -6h-4q-10 0 -16 6t-6 16v100h-77v-303q0 -10 -6.5 -16t-16.5 -6h-18q-10 0 -16 6t-6 16v655q0 10 6 16.5t16 6.5h18q11 0 17 -6t6 -17v-292h77v105q0 10 6 16t16 6h4q10 0 16 -6
t6 -16v-106h10l191 301q11 15 33 15h16q20 0 20 -20q0 -5 -5 -13l-195 -307l215 -325q2 -3 2 -11z" />
    <glyph glyph-name="uni049D" unicode="&#x49d;" horiz-adv-x="506" 
d="M481 14q0 -14 -19 -14h-26q-15 0 -26 14l-158 221h-5v-88q0 -10 -6 -16t-16 -6h-4q-10 0 -16 6t-6 16v88h-57v-213q0 -10 -6 -16t-16 -6h-17q-10 0 -16 6t-6 16v476q0 10 6 16t16 6h17q10 0 16 -6t6 -16v-203h57v77q0 10 6 16t16 6h4q10 0 16 -6t6 -16v-77h2l147 210
q11 15 26 15h20q9 0 14.5 -3.5t5.5 -10.5q0 -4 -5 -12l-155 -222l174 -245q5 -6 5 -13z" />
    <glyph glyph-name="uni04A0" unicode="&#x4a0;" horiz-adv-x="767" 
d="M722 24q0 -10 -6.5 -17t-16.5 -7h-17q-15 0 -23 13l-210 312h-139v-303q0 -10 -6.5 -16t-16.5 -6h-18q-10 0 -16 6t-6 16v618h-198q-10 0 -16 6t-6 16v15q0 10 6 16.5t16 6.5h238q11 0 17 -6t6 -17v-292l135 -1l191 301q11 15 33 15h16q20 0 20 -20q0 -5 -5 -13
l-195 -307l215 -325q2 -3 2 -11z" />
    <glyph glyph-name="uni04A1" unicode="&#x4a1;" horiz-adv-x="623" 
d="M598 14q0 -14 -19 -14h-26q-15 0 -26 14l-158 221h-110v-213q0 -10 -6 -16t-16 -6h-17q-10 0 -16 6t-6 16v440h-163q-10 0 -16 6t-6 16v14q0 10 6 16t16 6h202q10 0 16 -6t6 -16v-203h107l147 210q11 15 26 15h20q9 0 14.5 -3.5t5.5 -10.5q0 -4 -5 -12l-155 -222
l174 -245q5 -6 5 -13z" />
    </font>
</defs>
</svg>
