<?xml version="1.0" standalone="no"?>
<!DOCTYPE svg PUBLIC "-//W3C//DTD SVG 1.1//EN" "http://www.w3.org/Graphics/SVG/1.1/DTD/svg11.dtd" >
<svg xmlns="http://www.w3.org/2000/svg" xmlns:xlink="http://www.w3.org/1999/xlink" version="1.1">
<metadata>
Created by FontForge 20170731 at Thu Aug 17 12:58:23 2017
 By Aleksey,,,
Copyright 2014-2017 Indian Type Foundry (info@indiantypefoundry.com)
</metadata>
<defs>
<font id="Poppins-Regular" horiz-adv-x="294" >
  <font-face 
    font-family="Poppins"
    font-weight="400"
    font-stretch="normal"
    units-per-em="1000"
    panose-1="0 0 5 0 0 0 0 0 0 0"
    ascent="800"
    descent="-200"
    x-height="549"
    cap-height="705"
    bbox="-531 -573 2567 1065"
    underline-thickness="50"
    underline-position="-150"
    unicode-range="U+000D-FB02"
  />
<missing-glyph horiz-adv-x="500" 
d="M500 700v-700h-500v700h500zM80 650l170 -255l170 255h-340zM220 350l-170 255v-510zM450 605l-170 -255l170 -255v510zM250 305l-170 -255h340z" />
    <glyph glyph-name=".notdef" horiz-adv-x="500" 
d="M500 700v-700h-500v700h500zM80 650l170 -255l170 255h-340zM220 350l-170 255v-510zM450 605l-170 -255l170 -255v510zM250 305l-170 -255h340z" />
    <glyph glyph-name=".null" horiz-adv-x="0" 
 />
    <glyph glyph-name="nonmarkingreturn" horiz-adv-x="333" 
 />
    <glyph glyph-name="NULL" horiz-adv-x="0" 
 />
    <glyph glyph-name="NULL" horiz-adv-x="0" 
 />
    <glyph glyph-name="CR" unicode="&#xd;" horiz-adv-x="247" 
 />
    <glyph glyph-name="space" unicode=" " horiz-adv-x="247" 
 />
    <glyph glyph-name="exclam" unicode="!" horiz-adv-x="299" 
d="M203 722l-13 -515h-75l-13 515h101zM209 107v-107h-111v107h111z" />
    <glyph glyph-name="quotedbl" unicode="&#x22;" horiz-adv-x="300" 
d="M124 797l-9 -199h-63l-10 199h82zM259 797l-10 -199h-62l-11 199h83z" />
    <glyph glyph-name="numbersign" unicode="#" horiz-adv-x="810" 
d="M620 449l-35 -162h140v-83h-157l-44 -204h-86l44 204h-211l-44 -204h-86l44 204h-156v83h173l35 162h-151v84h169l44 207h86l-44 -207h211l44 207h86l-44 -207h143v-84h-161zM534 449h-211l-35 -162h211z" />
    <glyph glyph-name="dollar" unicode="$" horiz-adv-x="582" 
d="M426 352q43 -19 75 -59.5t32 -109.5q0 -50 -24.5 -93t-75.5 -70t-125 -27h-3v-80h-31v82q-95 9 -155 62.5t-67 132.5h97q4 -42 36.5 -78.5t88.5 -45.5v256q-77 23 -119.5 41.5t-74 58.5t-31.5 107q0 55 28 97t79 65t118 23v86h31v-87q93 -7 148 -57t65 -121h-98
q-7 38 -36 68t-79 38v-246q78 -24 121 -43zM179.5 454q32.5 -28 94.5 -49v238q-58 0 -92.5 -28.5t-34.5 -81.5q0 -51 32.5 -79zM402 97q34 33 34 84q0 53 -34 82t-97 49v-248h1q62 0 96 33z" />
    <glyph glyph-name="percent" unicode="%" horiz-adv-x="659" 
d="M283.5 674.5q41.5 -40.5 41.5 -107.5t-41 -107t-105 -40t-105 40t-41 107t41 107.5t105 40.5q63 0 104.5 -40.5zM577 706l-405 -706h-90l405 706h90zM119.5 502q22.5 -25 58.5 -25q37 0 60 25t23 65t-23 65t-60 25q-36 0 -58.5 -25t-22.5 -65t22.5 -65zM585.5 246
q40.5 -40 40.5 -107t-40.5 -107.5t-104.5 -40.5q-63 0 -104.5 40.5t-41.5 107.5t41 107t105 40t104.5 -40zM421.5 74q22.5 -25 59.5 -25q36 0 58.5 25t22.5 65t-22.5 65t-58.5 25q-37 0 -59.5 -25t-22.5 -65t22.5 -65z" />
    <glyph glyph-name="ampersand" unicode="&#x26;" horiz-adv-x="682" 
d="M582 0l-154 170q0 -16 -6 -40q-11 -61 -59 -99t-116 -38q-62 0 -110 26.5t-75 74t-27 109.5t24.5 107.5t65.5 69t91 23.5q8 0 22 -2l-15 19q-28 34 -42.5 64.5t-14.5 71.5t20.5 76.5t61.5 57.5t98 22q86 0 131.5 -43t53.5 -108q6 -22 6 -45q0 -10 -1 -15h-86
q1 7 0.5 16.5t-0.5 13.5q-1 50 -28 77.5t-75 27.5q-44 0 -69.5 -26t-25.5 -63q0 -31 11.5 -53t37.5 -52l374 -442h-93zM337.5 106q35.5 35 35.5 90q0 38 -20 69t-52 49t-67 18q-52 0 -85.5 -33t-33.5 -94q0 -62 38 -98t94 -36q55 0 90.5 35z" />
    <glyph glyph-name="quotesingle" unicode="'" horiz-adv-x="171" 
d="M129 797l-12 -199h-63l-12 199h87z" />
    <glyph glyph-name="parenleft" unicode="(" horiz-adv-x="383" 
d="M116.5 746q72.5 151 191.5 243h89v-9q-265 -215 -265 -577q0 -363 265 -578v-9h-89q-119 93 -191.5 243t-72.5 344q0 192 72.5 343z" />
    <glyph glyph-name="parenright" unicode=")" horiz-adv-x="384" 
d="M267.5 59.5q-72.5 -150.5 -191.5 -243.5h-89v9q264 216 264 578q0 177 -65.5 322.5t-198.5 254.5v9h89q119 -92 191.5 -243t72.5 -343q0 -193 -72.5 -343.5z" />
    <glyph glyph-name="asterisk" unicode="*" horiz-adv-x="476" 
d="M384 673l40 -72l-143 -54l143 -54l-41 -72l-119 91l20 -152h-82l17 152l-121 -94l-42 75l142 54l-142 54l42 73l121 -92l-18 152h83l-20 -152z" />
    <glyph glyph-name="plus" unicode="+" horiz-adv-x="576" 
d="M543 324h-211v-213h-89v213h-210v83h210v214h89v-214h211v-83z" />
    <glyph glyph-name="comma" unicode="," horiz-adv-x="175" 
d="M140 -15q0 -52 -26 -83.5t-78 -31.5v39q25 0 36.5 13.5t11.5 42.5v9h-51v93h93q14 -44 14 -82z" />
    <glyph glyph-name="hyphen" unicode="-" horiz-adv-x="491" 
d="M385 405v-77h-400v77h400z" />
    <glyph glyph-name="period" unicode="." horiz-adv-x="171" 
d="M140 107v-107h-110v107h110z" />
    <glyph glyph-name="slash" unicode="/" horiz-adv-x="373" 
d="M369 942l-274 -1113h-88l273 1113h89z" />
    <glyph glyph-name="zero" unicode="0" horiz-adv-x="614" 
d="M113 92q56 -95 194 -95t194.5 95t56.5 265q0 168 -56.5 263t-194.5 95t-194 -94.5t-56 -263.5q0 -170 56 -265zM455.5 211.5q-12.5 -58.5 -47.5 -93.5t-101 -35q-65 0 -100 35t-47.5 93.5t-12.5 145.5q0 86 12.5 144t47.5 92.5t100 34.5q66 0 101 -34.5t47.5 -92.5
t12.5 -144q0 -87 -12.5 -145.5z" />
    <glyph glyph-name="one" unicode="1" horiz-adv-x="287" 
d="M13 620v85h202v-705h-96v620h-106z" />
    <glyph glyph-name="two" unicode="2" horiz-adv-x="567" 
d="M314 296.5q102 112.5 102 209.5q0 60 -30.5 96.5t-98.5 36.5q-70 0 -106 -44.5t-40 -122.5h-90q7 118 73 181.5t170 63.5q99 0 157 -53t58 -150q0 -80 -51.5 -162.5t-129 -153t-159.5 -119.5h358v-75h-485v66q170 114 272 226.5z" />
    <glyph glyph-name="three" unicode="3" horiz-adv-x="589" 
d="M416 700q49 -24 74 -66t25 -95q0 -66 -38.5 -111t-112.5 -54v-6q77 -20 120.5 -62t43.5 -116q0 -87 -58 -142t-167 -55t-176.5 56.5t-79.5 165.5h90q9 -66 50.5 -105t112.5 -39q67 0 103 34.5t36 89.5q0 66 -51.5 100.5t-146.5 34.5h-24v76h24q184 0 184 123q0 54 -34 86
t-94 32t-101 -34.5t-48 -101.5h-89q7 100 69.5 156.5t170.5 56.5q68 0 117 -24z" />
    <glyph glyph-name="four" unicode="4" horiz-adv-x="620" 
d="M31 162v76l362 472h98v-469h104v-79h-104v-162h-92v162h-368zM405 599l-278 -358h278v358z" />
    <glyph glyph-name="five" unicode="5" horiz-adv-x="616" 
d="M532 633h-362v-236q25 34 72 54t103 20q75 0 124.5 -31.5t73 -83t23.5 -114.5q0 -109 -61 -178t-179 -69q-106 0 -173 57.5t-75 154.5h90q11 -62 51.5 -96.5t102.5 -34.5q77 0 116 46t39 121q0 73 -40 114t-113 41q-52 0 -91 -22.5t-59 -60.5h-88v399h446v-81z" />
    <glyph glyph-name="six" unicode="6" horiz-adv-x="621" 
d="M412.5 614.5q-34.5 34.5 -95.5 34.5q-85 0 -128.5 -66t-43.5 -209l1 -37q15 60 69 95.5t127 35.5q105 0 164.5 -63t59.5 -176q0 -66 -26 -119.5t-79.5 -85t-132.5 -31.5q-151 0 -207.5 95t-56.5 258q0 188 60.5 282.5t197.5 94.5q101 0 155.5 -57t64.5 -149h-87
q-8 63 -42.5 97.5zM198.5 121.5q42.5 -49.5 127.5 -49.5q70 0 112 41.5t42 116.5q0 81 -42 123.5t-116 42.5q-42 0 -80 -17t-62 -51.5t-24 -83.5q0 -73 42.5 -122.5z" />
    <glyph glyph-name="seven" unicode="7" horiz-adv-x="506" 
d="M476 639l-267 -639h-96l271 630h-370v79h462v-70z" />
    <glyph glyph-name="eight" unicode="8" horiz-adv-x="625" 
d="M99 634q28 43 83 68t131 25t130.5 -25t82.5 -68t28 -95q0 -59 -32 -102t-97 -61q70 -19 109 -66t39 -116q0 -100 -71 -157t-189 -57t-189 57t-71 157q0 69 38.5 116t108.5 66q-65 18 -97 61t-32 102q0 52 28 95zM202 433.5q41 -32.5 111 -32.5t110.5 32.5t40.5 92.5
t-41 92.5t-110 32.5t-110.5 -32.5t-41.5 -92.5t41 -92.5zM188 93.5q46 -37.5 125 -37.5q78 0 124 38t46 105q0 68 -48 103t-122 35q-75 0 -123 -35t-48 -103t46 -105.5z" />
    <glyph glyph-name="nine" unicode="9" horiz-adv-x="608" 
d="M204 101q35 -34 96 -34q84 0 127 65t43 206q0 27 -1 41q-14 -60 -68 -96t-127 -36q-105 0 -165 63t-60 176q0 66 26 120t79.5 85.5t132.5 31.5q152 0 208.5 -93.5t56.5 -256.5q0 -186 -58 -283.5t-194 -97.5q-101 0 -158.5 57.5t-67.5 148.5h86q9 -63 44 -97zM417.5 594
q-42.5 50 -127.5 50q-70 0 -112 -42t-42 -117q0 -80 42 -123t115 -43q42 0 80.5 17t62.5 52t24 84q0 72 -42.5 122z" />
    <glyph glyph-name="colon" unicode=":" horiz-adv-x="191" 
d="M152 539v-107h-110v107h110zM152 107v-107h-110v107h110z" />
    <glyph glyph-name="semicolon" unicode=";" horiz-adv-x="244" 
d="M189 536v-107h-110v107h110zM188 -15q0 -52 -26 -83.5t-78 -31.5v39q25 0 36.5 13.5t11.5 42.5v9h-51v93h93q14 -44 14 -82z" />
    <glyph glyph-name="less" unicode="&#x3c;" horiz-adv-x="422" 
d="M275 137l-242 229l242 230h114l-242 -230l242 -229h-114z" />
    <glyph glyph-name="equal" unicode="=" horiz-adv-x="586" 
d="M553 514v-83h-520v83h520zM553 301v-83h-520v83h520z" />
    <glyph glyph-name="greater" unicode="&#x3e;" horiz-adv-x="422" 
d="M33 596h114l242 -230l-242 -229h-114l242 229z" />
    <glyph glyph-name="question" unicode="?" horiz-adv-x="502" 
d="M410.5 679.5q58.5 -53.5 58.5 -148.5q0 -106 -65.5 -158.5t-179.5 -54.5v-118h-86v180h40q92 0 146.5 32t54.5 119q0 59 -34.5 93t-93.5 34q-62 0 -99.5 -35t-37.5 -92h-88q0 60 28 106t80 71t120 25q98 0 156.5 -53.5zM237 107v-107h-110v107h110z" />
    <glyph glyph-name="at" unicode="@" horiz-adv-x="1141" 
d="M881 733.5q108 -55.5 164 -157.5t56 -239q0 -97 -34 -176.5t-91 -125t-123 -45.5q-61 0 -95.5 31.5t-30.5 102.5q-74 -134 -215 -134q-62 0 -110.5 30t-75.5 84.5t-27 126.5q0 93 39 167.5t106.5 117t150.5 42.5q73 0 126 -29t80.5 -80t27.5 -116q0 -16 -4 -48l-22 -133
q-2 -20 -2 -26q0 -31 15 -43.5t43 -12.5q39 0 73.5 31.5t55 91.5t20.5 141q0 114 -46 199t-135.5 132.5t-217.5 47.5q-147 0 -253.5 -63.5t-162 -173t-55.5 -245.5q0 -200 112.5 -304.5t319.5 -106.5l-17 -75q-240 4 -372.5 128.5t-132.5 357.5q0 158 72 285.5t202.5 200
t298.5 72.5q152 0 260 -55.5zM639 99.5q45 29.5 72 85t27 129.5q0 76 -41 119.5t-116 43.5q-55 0 -99.5 -29t-69.5 -82t-25 -123q0 -77 42 -125t111 -48q54 0 99 29.5z" />
    <glyph glyph-name="A" unicode="A" horiz-adv-x="662" 
d="M486 163h-310l-59 -163h-98l261 692h103l260 -692h-98zM460 234l-129 356l-129 -356h258z" />
    <glyph glyph-name="B" unicode="B" horiz-adv-x="604" 
d="M522.5 303q40.5 -48 40.5 -113q0 -86 -58.5 -138t-169.5 -52h-262v705h258q106 0 161 -47t55 -129q0 -68 -36.5 -110t-93.5 -54q65 -14 105.5 -62zM164 396h152q67 0 102.5 31t35.5 87q0 54 -35 85t-107 31h-148v-234zM429.5 109q39.5 33 39.5 93q0 59 -40.5 92.5
t-112.5 33.5h-152v-252h154q72 0 111.5 33z" />
    <glyph glyph-name="C" unicode="C" horiz-adv-x="763" 
d="M598 648.5q84 -63.5 116 -173.5h-96q-27 70 -87 111.5t-147 41.5q-69 0 -123.5 -33.5t-86 -96t-31.5 -146.5q0 -83 31.5 -145t86 -95.5t123.5 -33.5q87 0 147 41.5t87 111.5h96q-32 -110 -116 -173.5t-213 -63.5q-99 0 -175 45.5t-118.5 127t-42.5 185.5q0 105 42.5 187
t118.5 127.5t175 45.5q129 0 213 -63.5z" />
    <glyph glyph-name="D" unicode="D" horiz-adv-x="717" 
d="M624 166.5q-43 -79.5 -126.5 -123t-200.5 -43.5h-224v705h224q117 0 200.5 -42.5t126.5 -122t43 -187.5q0 -107 -43 -186.5zM501 153q73 71 73 200t-72.5 200.5t-211.5 71.5h-126v-543h126q138 0 211 71z" />
    <glyph glyph-name="E" unicode="E" horiz-adv-x="506" 
d="M164 631v-241h268v-70h-268v-246h298v-74h-389v705h389v-74h-298z" />
    <glyph glyph-name="F" unicode="F" horiz-adv-x="507" 
d="M472 705v-74h-308v-244h261v-71h-261v-316h-91v705h399z" />
    <glyph glyph-name="G" unicode="G" horiz-adv-x="778" 
d="M599.5 651q83.5 -61 112.5 -166h-96q-25 64 -83.5 103t-138.5 39q-72 0 -129 -33.5t-89.5 -95.5t-32.5 -146q0 -86 33 -148.5t91.5 -96t134.5 -33.5q65 0 119 28t88.5 81.5t41.5 125.5h-277v68h354v-84q-9 -84 -52 -152t-116 -108t-166 -40q-102 0 -180 45.5t-121.5 127
t-43.5 186.5t43.5 186.5t121.5 127.5t179 46q123 0 206.5 -61z" />
    <glyph glyph-name="H" unicode="H" horiz-adv-x="687" 
d="M614 705v-705h-92v326h-358v-326h-91v705h91v-305h358v305h92z" />
    <glyph glyph-name="I" unicode="I" horiz-adv-x="237" 
d="M164 705v-705h-91v705h91z" />
    <glyph glyph-name="J" unicode="J" horiz-adv-x="484" 
d="M416 705v-524q0 -87 -49.5 -137.5t-138.5 -50.5q-96 0 -150.5 56.5t-54.5 158.5h91q0 -61 27 -96.5t83 -35.5q53 0 77 30t24 75v524h91z" />
    <glyph glyph-name="K" unicode="K" horiz-adv-x="587" 
d="M248 356l322 -356h-112l-294 329v-329h-91v705h91v-327l295 327h111z" />
    <glyph glyph-name="L" unicode="L" horiz-adv-x="434" 
d="M164 71h250v-71h-341v705h91v-634z" />
    <glyph glyph-name="M" unicode="M" horiz-adv-x="852" 
d="M779 693v-693h-91v553l-221 -553h-81l-222 551v-551h-91v693h109l246 -582l242 582h109z" />
    <glyph glyph-name="N" unicode="N" horiz-adv-x="694" 
d="M621 0h-91l-366 557v-557h-91v705h91l366 -558v558h91v-705z" />
    <glyph glyph-name="O" unicode="O" horiz-adv-x="791" 
d="M572.5 668q78.5 -46 123.5 -128.5t45 -186.5t-45 -186.5t-123.5 -128.5t-176.5 -46t-177.5 46t-124.5 128.5t-45 186.5t45 186.5t124.5 128.5t177.5 46t176.5 -46zM265.5 595.5q-57.5 -33.5 -90 -96t-32.5 -146.5q0 -83 32.5 -146t90 -96.5t130.5 -33.5q72 0 129.5 34
t90 96.5t32.5 145.5q0 84 -32.5 146.5t-90 96t-129.5 33.5q-73 0 -130.5 -33.5z" />
    <glyph glyph-name="P" unicode="P" horiz-adv-x="571" 
d="M164 284v-284h-91v705h224q121 0 181 -56.5t60 -154.5q0 -99 -62 -154.5t-179 -55.5h-133zM408.5 395q36.5 35 36.5 99q0 66 -36.5 100.5t-119.5 34.5h-125v-269h125q83 0 119.5 35z" />
    <glyph glyph-name="Q" unicode="Q" horiz-adv-x="791" 
d="M640 -137l-142 143q-50 -14 -102 -14q-98 0 -177.5 46t-124.5 128.5t-45 186.5t45 186.5t124.5 128.5t177.5 46t176.5 -46t123.5 -128.5t45 -186.5q0 -105 -45 -187.5t-124 -127.5l183 -175h-115zM175.5 207q32.5 -63 90 -96.5t130.5 -33.5q72 0 129.5 34t90 96.5
t32.5 145.5q0 84 -32.5 146.5t-90 96t-129.5 33.5q-73 0 -130.5 -33.5t-90 -96t-32.5 -146.5q0 -83 32.5 -146z" />
    <glyph glyph-name="R" unicode="R" horiz-adv-x="583" 
d="M447 0l-184 288h-99v-288h-91v705h232q120 0 180 -57.5t60 -152.5q0 -86 -48 -138.5t-139 -65.5l192 -291h-103zM164 354h133q155 0 155 136t-155 136h-133v-272z" />
    <glyph glyph-name="S" unicode="S" horiz-adv-x="568" 
d="M495 90q-24 -43 -73 -70t-121 -27q-70 0 -124.5 25.5t-87 70t-37.5 101.5h97q3 -30 20.5 -58.5t50 -47t78.5 -18.5q60 0 92 32t32 82q0 43 -22.5 70t-55.5 42.5t-90 33.5q-67 22 -107.5 41.5t-69 58.5t-28.5 103q0 55 26.5 97t76 65t116.5 23q104 0 165 -50.5t71 -128.5
h-98q-8 42 -43 74t-95 32q-55 0 -88 -28.5t-33 -80.5q0 -41 21.5 -66.5t53.5 -40t88 -32.5q68 -22 109.5 -42t70.5 -60.5t29 -107.5q0 -50 -24 -93z" />
    <glyph glyph-name="T" unicode="T" horiz-adv-x="522" 
d="M505 705v-74h-199v-631h-91v631h-199v74h489z" />
    <glyph glyph-name="U" unicode="U" horiz-adv-x="661" 
d="M159 705v-423q0 -104 46 -153.5t127 -49.5q80 0 125 50t45 153v423h91v-423q0 -144 -71.5 -216.5t-191.5 -72.5q-119 0 -190.5 72.5t-71.5 216.5v423h91z" />
    <glyph glyph-name="V" unicode="V" horiz-adv-x="670" 
d="M119 705l215 -604l218 604h99l-259 -705h-115l-258 705h100z" />
    <glyph glyph-name="W" unicode="W" horiz-adv-x="974" 
d="M940 705l-179 -705h-111l-163 576l-163 -576h-111l-180 705h101l135 -599l167 599h101l167 -597l136 597h100z" />
    <glyph glyph-name="X" unicode="X" horiz-adv-x="594" 
d="M466 0l-177 279l-161 -279h-105l215 359l-219 346h109l173 -274l162 274h105l-216 -353l222 -352h-108z" />
    <glyph glyph-name="Y" unicode="Y" horiz-adv-x="593" 
d="M574 705l-231 -438v-267h-92v267l-232 438h106l173 -341l172 341h104z" />
    <glyph glyph-name="Z" unicode="Z" horiz-adv-x="538" 
d="M142 75h355v-75h-457v72l349 558h-340v75h442v-72z" />
    <glyph glyph-name="bracketleft" unicode="[" horiz-adv-x="330" 
d="M285 942v-75h-110v-963h110v-75h-196v1113h196z" />
    <glyph glyph-name="backslash" unicode="\" horiz-adv-x="617" 
d="M404 -171l-314 1113h90l313 -1113h-89z" />
    <glyph glyph-name="bracketright" unicode="]" horiz-adv-x="329" 
d="M45 -171v75h110v963h-110v75h196v-1113h-196z" />
    <glyph glyph-name="asciicircum" unicode="^" horiz-adv-x="625" 
d="M126 170h-91l235 523h85l235 -523h-91l-185 414z" />
    <glyph glyph-name="underscore" unicode="_" horiz-adv-x="615" 
d="M575 -34v-89h-532v89h532z" />
    <glyph glyph-name="grave" unicode="`" horiz-adv-x="287" 
d="M242 657v-65l-213 117v74z" />
    <glyph glyph-name="a" unicode="a" horiz-adv-x="674" 
d="M433.5 516q55.5 -40 77.5 -107v140h91v-549h-91v140q-22 -67 -77.5 -107t-135.5 -40q-73 0 -130 34t-89.5 97.5t-32.5 149.5t32.5 150t89.5 98t130 34q80 0 135.5 -40zM189.5 421.5q-50.5 -53.5 -50.5 -147.5t50.5 -147.5t134.5 -53.5q54 0 96.5 25t66.5 70.5t24 105.5
t-24 106t-66.5 70.5t-96.5 24.5q-84 0 -134.5 -53.5z" />
    <glyph glyph-name="b" unicode="b" horiz-adv-x="674" 
d="M506 522q57 -34 89.5 -98t32.5 -150t-32.5 -149.5t-89.5 -97.5t-130 -34q-80 0 -135.5 40.5t-76.5 106.5v-140h-91v740h91v-331q21 66 76.5 106.5t135.5 40.5q73 0 130 -34zM254 450.5q-43 -24.5 -67 -70.5t-24 -106t24 -105.5t67 -70.5t96 -25q85 0 135.5 53.5
t50.5 147.5t-50.5 147.5t-135.5 53.5q-53 0 -96 -24.5z" />
    <glyph glyph-name="c" unicode="c" horiz-adv-x="621" 
d="M490 500q69 -56 85 -150h-96q-10 59 -54.5 92.5t-110.5 33.5q-48 0 -87.5 -22t-63.5 -67.5t-24 -112.5t24 -112.5t63.5 -67.5t87.5 -22q66 0 110.5 34t54.5 93h96q-16 -95 -85 -150.5t-174 -55.5q-79 0 -140 34t-95.5 97.5t-34.5 149.5t34.5 150t95.5 98t140 34
q105 0 174 -56z" />
    <glyph glyph-name="d" unicode="d" horiz-adv-x="674" 
d="M433.5 516q55.5 -40 77.5 -107v331h91v-740h-91v140q-22 -67 -77.5 -107t-135.5 -40q-73 0 -130 34t-89.5 97.5t-32.5 149.5t32.5 150t89.5 98t130 34q80 0 135.5 -40zM189.5 421.5q-50.5 -53.5 -50.5 -147.5t50.5 -147.5t134.5 -53.5q54 0 96.5 25t66.5 70.5t24 105.5
t-24 106t-66.5 70.5t-96.5 24.5q-84 0 -134.5 -53.5z" />
    <glyph glyph-name="e" unicode="e" horiz-adv-x="624" 
d="M574 255h-439q3 -94 53.5 -141t123.5 -47q66 0 110.5 33.5t54.5 89.5h97q-10 -57 -44.5 -102t-89.5 -70t-124 -25q-79 0 -140 34t-95.5 97.5t-34.5 149.5t34.5 150t95.5 98t140 34q80 0 139.5 -34t91 -91t31.5 -126q0 -29 -4 -50zM466 401q-23 41 -63 61t-87 20
q-75 0 -126 -46.5t-55 -136.5h351q3 61 -20 102z" />
    <glyph glyph-name="f" unicode="f" horiz-adv-x="342" 
d="M214.5 654q-28.5 -26 -28.5 -90v-15h130v-80h-130v-469h-91v469h-79v80h79v22q0 197 221 188v-80q-73 1 -101.5 -25z" />
    <glyph glyph-name="g" unicode="g" horiz-adv-x="674" 
d="M433.5 516q55.5 -40 77.5 -107v140h91v-558q0 -76 -32 -135t-90 -92t-135 -33q-111 0 -181 53.5t-89 144.5h90q16 -55 60.5 -86.5t114.5 -31.5q74 0 122.5 47.5t48.5 132.5v149q-22 -67 -77.5 -107t-135.5 -40q-73 0 -130 34t-89.5 97.5t-32.5 149.5t32.5 150t89.5 98
t130 34q80 0 135.5 -40zM189.5 421.5q-50.5 -53.5 -50.5 -147.5t50.5 -147.5t134.5 -53.5q54 0 96.5 25t66.5 70.5t24 105.5t-24 106t-66.5 70.5t-96.5 24.5q-84 0 -134.5 -53.5z" />
    <glyph glyph-name="h" unicode="h" horiz-adv-x="643" 
d="M517 496.5q59 -61.5 59 -177.5v-319h-91v311q0 82 -42 126t-114 44q-75 0 -120 -48.5t-45 -141.5v-291h-91v740h91v-321q21 67 74.5 103t123.5 36q96 0 155 -61.5z" />
    <glyph glyph-name="i" unicode="i" horiz-adv-x="237" 
d="M74 750.5q17 15.5 45 15.5t45 -15.5t17 -40.5t-17 -40.5t-45 -15.5t-45 15.5t-17 40.5t17 40.5zM164 549v-549h-91v549h91z" />
    <glyph glyph-name="j" unicode="j" horiz-adv-x="243" 
d="M79.5 669.5q-17.5 15.5 -17.5 40.5t17.5 40.5t45.5 15.5q27 0 44 -15.5t17 -40.5t-17 -40.5t-44 -15.5q-28 0 -45.5 15.5zM-28 -180h38q36 0 52.5 16t16.5 55v658h92v-661q0 -148 -150 -148h-49v80z" />
    <glyph glyph-name="k" unicode="k" horiz-adv-x="495" 
d="M374 0l-210 247v-247h-91v740h91v-430l207 239h111l-246 -273l252 -276h-114z" />
    <glyph glyph-name="l" unicode="l" horiz-adv-x="237" 
d="M164 740v-740h-91v740h91z" />
    <glyph glyph-name="m" unicode="m" horiz-adv-x="1029" 
d="M902.5 496.5q58.5 -61.5 58.5 -177.5v-319h-91v311q0 81 -39.5 124t-108.5 43q-72 0 -115.5 -47.5t-43.5 -139.5v-291h-91v311q0 81 -40 124t-108 43q-73 0 -116.5 -47.5t-43.5 -139.5v-291h-91v549h91v-125q20 65 71.5 99.5t118.5 34.5q70 0 121.5 -35.5t73.5 -104.5
q23 67 77 103.5t122 36.5q96 0 154.5 -61.5z" />
    <glyph glyph-name="n" unicode="n" horiz-adv-x="643" 
d="M517 496.5q59 -61.5 59 -177.5v-319h-91v311q0 82 -42 126t-114 44q-75 0 -120 -48.5t-45 -141.5v-291h-91v549h91v-130q21 67 74.5 103t123.5 36q96 0 155 -61.5z" />
    <glyph glyph-name="o" unicode="o" horiz-adv-x="643" 
d="M463.5 522q62.5 -34 98 -98t35.5 -150t-35.5 -149.5t-98 -97.5t-141.5 -34t-141.5 34t-98.5 97.5t-36 149.5t36 150t98.5 98t141.5 34t141.5 -34zM231.5 454q-41.5 -22 -67 -67.5t-25.5 -112.5q0 -66 25.5 -111.5t67 -67.5t90.5 -22t90.5 22t67 67.5t25.5 111.5
q0 67 -25.5 112.5t-67 67.5t-90.5 22t-90.5 -22z" />
    <glyph glyph-name="p" unicode="p" horiz-adv-x="674" 
d="M506 522q57 -34 89.5 -98t32.5 -150t-32.5 -149.5t-89.5 -97.5t-130 -34q-80 0 -135.5 40.5t-76.5 106.5v-400h-91v809h91v-140q21 66 76.5 106.5t135.5 40.5q73 0 130 -34zM254 450.5q-43 -24.5 -67 -70.5t-24 -106t24 -105.5t67 -70.5t96 -25q85 0 135.5 53.5
t50.5 147.5t-50.5 147.5t-135.5 53.5q-53 0 -96 -24.5z" />
    <glyph glyph-name="q" unicode="q" horiz-adv-x="674" 
d="M433.5 517.5q53.5 -36.5 77.5 -98.5v130h91v-809h-91v394q-25 -65 -78.5 -103t-128.5 -38q-73 0 -132 34.5t-92.5 98t-33.5 147.5t33.5 147.5t92.5 98.5t132 35q76 0 129.5 -36.5zM190.5 421.5q-51.5 -53.5 -51.5 -148.5t51 -147.5t134 -52.5q52 0 94.5 24.5t67.5 70
t25 106.5t-25 106.5t-67.5 70t-94.5 24.5q-82 0 -133.5 -53.5z" />
    <glyph glyph-name="r" unicode="r" horiz-adv-x="384" 
d="M243 526.5q52 31.5 124 31.5v-99h-28q-77 0 -126 -39.5t-49 -130.5v-289h-91v549h91v-111q27 57 79 88.5z" />
    <glyph glyph-name="s" unicode="s" horiz-adv-x="517" 
d="M394.5 507.5q56.5 -48.5 68.5 -130.5h-87q-6 49 -40.5 80.5t-92.5 31.5q-49 0 -76.5 -23.5t-27.5 -63.5q0 -30 18.5 -48.5t46 -28t75.5 -20.5q61 -14 98.5 -28.5t64 -46.5t26.5 -86q0 -67 -50.5 -109t-134.5 -42q-98 0 -160 47t-73 131h88q5 -50 43.5 -81t101.5 -31
q47 0 73.5 24t26.5 63q0 32 -19 51t-47 29t-77 21q-61 14 -97.5 28t-62 44.5t-25.5 82.5q0 69 51 111.5t139 42.5q93 0 149.5 -48.5z" />
    <glyph glyph-name="t" unicode="t" horiz-adv-x="373" 
d="M335 80v-80h-68q-84 0 -125.5 40t-41.5 134v296h-82v79h82v137h92v-137h142v-79h-142v-298q0 -53 19.5 -72.5t67.5 -19.5h56z" />
    <glyph glyph-name="u" unicode="u" horiz-adv-x="634" 
d="M561 549v-549h-91v129q-21 -67 -74.5 -102.5t-124.5 -35.5q-95 0 -154 61.5t-59 176.5v320h91v-311q0 -82 42 -126.5t114 -44.5q75 0 120 48.5t45 141.5v292h91z" />
    <glyph glyph-name="v" unicode="v" horiz-adv-x="570" 
d="M286 97l170 452h98l-215 -549h-108l-215 549h98z" />
    <glyph glyph-name="w" unicode="w" horiz-adv-x="839" 
d="M827 549l-158 -549h-98l-151 447l-152 -447h-99l-156 549h92l117 -462l152 462h95l153 -461l118 461h87z" />
    <glyph glyph-name="x" unicode="x" horiz-adv-x="505" 
d="M389 0l-143 210l-129 -210h-101l180 283l-181 266h104l139 -204l127 204h101l-179 -276l186 -273h-104z" />
    <glyph glyph-name="y" unicode="y" horiz-adv-x="565" 
d="M111 549l178 -432l165 432h101l-326 -809h-103l114 269l-231 540h102z" />
    <glyph glyph-name="z" unicode="z" horiz-adv-x="446" 
d="M126 77h294v-77h-394v73l280 399h-272v77h376v-74z" />
    <glyph glyph-name="braceleft" unicode="{" horiz-adv-x="371" 
d="M208 318.5q29 -40.5 29 -98.5q0 -31 -10 -87q-7 -38 -10 -60.5t-3 -53.5q0 -83 37.5 -142t88.5 -86v-8h-87q-23 13 -51.5 42t-50.5 79.5t-22 119.5q0 28 4 56.5t9 53.5q11 55 11 88q0 105 -107 129v42q64 14 85.5 49t21.5 80q0 33 -11 88q-5 25 -9 53.5t-4 56.5
q0 69 22 119.5t50.5 79.5t51.5 42h87v-8q-51 -27 -88.5 -86t-37.5 -142q0 -31 3 -53.5t10 -60.5q10 -56 10 -87q0 -59 -28.5 -99t-87.5 -52v-2q58 -12 87 -52.5z" />
    <glyph glyph-name="bar" unicode="|" horiz-adv-x="216" 
d="M154 -107h-92v903h92v-903z" />
    <glyph glyph-name="braceright" unicode="}" horiz-adv-x="369" 
d="M170 423.5q-29 38.5 -29 93.5q0 30 10 86q7 37 10 60.5t3 54.5q0 82 -38 145.5t-87 89.5v8h86q23 -13 51.5 -42t50.5 -79.5t22 -119.5q0 -28 -4 -56.5t-9 -53.5q-11 -55 -11 -88q0 -107 107 -129v-42q-107 -20 -107 -129q0 -33 11 -88q5 -25 9 -53.5t4 -56.5
q0 -69 -22 -119.5t-50.5 -79.5t-51.5 -42h-86v8q49 26 87 89.5t38 145.5q0 31 -3 54.5t-10 60.5q-10 56 -10 86q0 55 29 93.5t87 50.5v2q-58 12 -87 50.5z" />
    <glyph glyph-name="asciitilde" unicode="~" horiz-adv-x="518" 
d="M222.5 385.5q21.5 -9.5 51.5 -27.5q26 -15 42 -22.5t34 -7.5q25 0 41.5 18t21.5 49h72q-12 -74 -48.5 -112t-92.5 -38q-27 0 -49.5 9.5t-50.5 27.5q-27 16 -42.5 23t-33.5 7q-25 0 -42 -18.5t-22 -49.5h-71q13 74 49 112.5t92 38.5q27 0 48.5 -9.5z" />
    <glyph glyph-name="uni00A0" unicode="&#xa0;" horiz-adv-x="247" 
 />
    <glyph glyph-name="exclamdown" unicode="&#xa1;" horiz-adv-x="309" 
d="M203 -164l-13 515h-75l-13 -515h101zM209 451v107h-111v-107h111z" />
    <glyph glyph-name="cent" unicode="&#xa2;" horiz-adv-x="585" 
d="M402 120q42 33 52 90h85q-10 -86 -70.5 -139.5t-151.5 -58.5v-101h-45v102q-103 8 -164.5 74.5t-61.5 176.5t61.5 176.5t164.5 74.5v96h45v-95q91 -5 151.5 -58t70.5 -140h-85q-10 58 -52 90.5t-102 32.5q-72 0 -119 -45.5t-47 -131.5t47 -131.5t119 -45.5q60 0 102 33z
" />
    <glyph glyph-name="sterling" unicode="&#xa3;" horiz-adv-x="589" 
d="M182 71h361v-73h-449l-12 49q46 48 68.5 90.5t22.5 102.5q0 28 -12 69h-118v63h97q-16 48 -24.5 84t-8.5 77q0 58 26.5 103.5t74.5 70.5t111 25q100 0 159.5 -58t68.5 -149h-86q-6 58 -43.5 95t-95.5 37q-55 0 -91 -34.5t-36 -99.5q0 -31 7.5 -61t16.5 -56t12 -34h184
v-63h-165q9 -33 9 -66q0 -96 -77 -172z" />
    <glyph glyph-name="currency" unicode="&#xa4;" horiz-adv-x="537" 
d="M411 265l57 -56l-37 -37l-59 58q-44 -29 -103 -29q-61 0 -105 30l-59 -59l-37 37l58 57q-35 46 -35 112q0 67 36 112l-59 59l37 37l61 -61q45 28 103 28q56 0 101 -28l61 61l37 -37l-59 -58q39 -45 39 -113q0 -65 -37 -113zM343.5 289.5q30.5 32.5 30.5 87.5t-30.5 87.5
t-74.5 32.5q-45 0 -74.5 -32t-29.5 -88t29.5 -88t74.5 -32q44 0 74.5 32.5z" />
    <glyph glyph-name="yen" unicode="&#xa5;" horiz-adv-x="622" 
d="M421 384h138v-63h-172l-28 -54v-23h200v-64h-200v-180h-91v180h-201v64h201v23l-29 54h-172v63h139l-171 321h106l173 -354l172 354h104z" />
    <glyph glyph-name="brokenbar" unicode="&#xa6;" horiz-adv-x="276" 
d="M92 796h92v-379h-92v379zM184 -107h-92v380h92v-380z" />
    <glyph glyph-name="section" unicode="&#xa7;" horiz-adv-x="576" 
d="M502 -27q0 -67 -52.5 -109t-144.5 -42q-96 0 -155.5 48.5t-69.5 132.5h91q6 -51 38.5 -82.5t96.5 -31.5q47 0 75 20.5t28 60.5q0 41 -36 69t-127 57q-96 29 -148 70.5t-52 113.5q0 57 38.5 101t112.5 58q-123 55 -123 150q0 67 53.5 108t147.5 41q95 0 153 -48.5
t68 -132.5h-90q-4 48 -37 81t-96 33q-49 0 -77.5 -19.5t-28.5 -58.5q0 -42 36.5 -70.5t126.5 -57.5q97 -30 148.5 -71.5t51.5 -113.5q0 -55 -37.5 -98.5t-110.5 -60.5q120 -54 120 -148zM182 197.5q39 -31.5 108 -31.5q68 0 106 33t38 81q0 51 -39 82.5t-108 31.5
q-68 0 -106 -33t-38 -81q0 -51 39 -82.5z" />
    <glyph glyph-name="dieresis" unicode="&#xa8;" horiz-adv-x="354" 
d="M58.5 709.5q14.5 14.5 35.5 14.5t35.5 -14.5t14.5 -35.5q0 -20 -14.5 -34.5t-35.5 -14.5t-35.5 14.5t-14.5 34.5q0 21 14.5 35.5zM224.5 709.5q14.5 14.5 35.5 14.5t35.5 -14.5t14.5 -35.5q0 -20 -14.5 -34.5t-35.5 -14.5t-35.5 14.5t-14.5 34.5q0 21 14.5 35.5z" />
    <glyph glyph-name="copyright" unicode="&#xa9;" horiz-adv-x="792" 
d="M215.5 663q-78.5 -45 -122.5 -125.5t-44 -183.5t44 -184t122.5 -126t180.5 -45t180.5 45t122 126t43.5 184t-43.5 183.5t-122 125.5t-180.5 45t-180.5 -45zM559 633.5q70 -40.5 108 -113.5t38 -166t-38 -165.5t-108 -113.5t-163 -41t-163 41t-108 113.5t-38 165.5t38 166
t108 113.5t163 40.5t163 -40.5zM531 542.5q57 -43.5 75 -120.5h-79q-15 47 -50.5 73t-80.5 26q-59 0 -100 -43.5t-41 -124.5q0 -53 19.5 -91t51.5 -57t70 -19q45 0 80.5 26.5t50.5 73.5h79q-17 -77 -74.5 -120.5t-131.5 -43.5q-61 0 -111 27t-79 79.5t-29 125.5
q0 72 29 124.5t79 80t111 27.5q74 0 131 -43.5z" />
    <glyph glyph-name="ordfeminine" unicode="&#xaa;" horiz-adv-x="450" 
d="M281.5 686.5q34.5 -23.5 50.5 -65.5v84h71v-351h-71v84q-34 -90 -136 -90q-73 0 -118 49.5t-45 131.5t45 131.5t118 49.5q51 0 85.5 -23.5zM137 618.5q-31 -33.5 -31 -90.5q0 -56 31 -89t80 -33q51 0 83 33.5t32 89.5t-32 89.5t-83 33.5q-49 0 -80 -33.5z" />
    <glyph glyph-name="guillemotleft" unicode="&#xab;" horiz-adv-x="461" 
d="M141 120l-96 175l96 175h89l-98 -175l98 -175h-89zM325 120l-96 175l96 175h89l-98 -175l98 -175h-89z" />
    <glyph glyph-name="logicalnot" unicode="&#xac;" horiz-adv-x="739" 
d="M686 433v-213h-90v141h-550v72h640z" />
    <glyph glyph-name="uni00AD" unicode="&#xad;" horiz-adv-x="491" 
d="M385 405v-77h-400v77h400z" />
    <glyph glyph-name="registered" unicode="&#xae;" horiz-adv-x="798" 
d="M582 665q79 -44 123 -124.5t44 -185.5q0 -103 -44 -184t-123 -126.5t-182 -45.5t-182.5 45.5t-124 126.5t-44.5 184q0 105 44 185.5t124 124.5t183 44t182 -44zM565 78.5q71 39.5 109 111t38 165.5q0 96 -38 168t-109 111.5t-165 39.5q-95 0 -166 -39.5t-109 -111.5
t-38 -168q0 -94 38 -165.5t109 -111t166 -39.5q94 0 165 39.5zM542.5 377q-31.5 -33 -92.5 -40l126 -192h-67l-122 190h-64v-190h-60v443h157q77 0 115.5 -34.5t38.5 -91.5q0 -52 -31.5 -85zM323 376h92q97 0 97 79q0 39 -22.5 58.5t-74.5 19.5h-92v-157z" />
    <glyph glyph-name="macron" unicode="&#xaf;" horiz-adv-x="411" 
d="M382 710v-64h-353v64h353z" />
    <glyph glyph-name="degree" unicode="&#xb0;" horiz-adv-x="406" 
d="M330.5 652q47.5 -48 47.5 -128t-47 -128.5t-126 -48.5q-80 0 -128.5 48.5t-48.5 128.5t48 128t127 48q80 0 127.5 -48zM129 614.5q-29 -32.5 -29 -91.5q0 -58 29 -90.5t76 -32.5q45 0 72.5 32.5t27.5 90.5q0 59 -28 91.5t-73 32.5q-46 0 -75 -32.5z" />
    <glyph glyph-name="plusminus" unicode="&#xb1;" horiz-adv-x="576" 
d="M332 374v-198h211v-83h-510v83h210v198h-210v83h210v176h89v-176h211v-83h-211z" />
    <glyph glyph-name="twosuperior" unicode="&#xb2;" horiz-adv-x="344" 
d="M308 408v-56h-265v50l121 97q32 26 48.5 50.5t16.5 55.5q0 27 -14.5 40t-38.5 13q-29 0 -45.5 -18t-19.5 -52h-71q4 53 41 88t103 35q57 0 88.5 -28.5t31.5 -72.5q0 -41 -26 -73.5t-81 -69.5l-83 -59h194z" />
    <glyph glyph-name="threesuperior" unicode="&#xb3;" horiz-adv-x="338" 
d="M267 683.5q35 -27.5 35 -72.5q0 -31 -17.5 -52t-52.5 -28v-3q74 -18 74 -84q0 -42 -35 -69t-97 -27q-69 0 -103.5 27.5t-40.5 81.5h74q4 -32 20.5 -45t44.5 -13q30 0 46 15t16 41q0 28 -19 43t-50 15h-50v31h49q31 0 48.5 15t17.5 44q0 24 -16.5 39.5t-43.5 15.5
q-55 0 -65 -54h-68q4 46 38.5 76.5t101.5 30.5q58 0 93 -27.5z" />
    <glyph glyph-name="acute" unicode="&#xb4;" horiz-adv-x="271" 
d="M242 709l-213 -117v65l213 126v-74z" />
    <glyph glyph-name="uni00B5" unicode="&#xb5;" horiz-adv-x="666" 
d="M584 549v-549h-91v124q-20 -64 -70 -98.5t-117 -34.5q-42 0 -77.5 17t-56.5 55v-323h-91v809h91v-285q0 -94 44.5 -143.5t119.5 -49.5q72 0 114.5 47.5t42.5 139.5v291h91z" />
    <glyph glyph-name="paragraph" unicode="&#xb6;" horiz-adv-x="592" 
d="M510 0h-76v622h-90v-622h-75v286h-12q-117 0 -176.5 56.5t-59.5 146.5t60 147t176 57h253v-693z" />
    <glyph glyph-name="periodcentered" unicode="&#xb7;" horiz-adv-x="182" 
d="M145 392v-107h-110v107h110z" />
    <glyph glyph-name="cedilla" unicode="&#xb8;" horiz-adv-x="282" 
d="M217.5 -88.5q35.5 -23.5 35.5 -72.5q0 -48 -34 -73.5t-88 -25.5h-102v53h92q67 0 67 48q0 20 -16 32.5t-51 12.5h-54v121h59v-74q56 2 91.5 -21.5z" />
    <glyph glyph-name="onesuperior" unicode="&#xb9;" horiz-adv-x="201" 
d="M33 647v57h129v-352h-71v295h-58z" />
    <glyph glyph-name="ordmasculine" unicode="&#xba;" horiz-adv-x="433" 
d="M312.5 686q41.5 -23 65 -64.5t23.5 -94.5t-23.5 -94.5t-65 -65t-95.5 -23.5t-96 23.5t-65 65t-23 94.5t23 94.5t65 64.5t96 23t95.5 -23zM136.5 619q-31.5 -33 -31.5 -92t31.5 -92t80.5 -33q48 0 80 33t32 92t-32 92t-80 33q-49 0 -80.5 -33z" />
    <glyph glyph-name="guillemotright" unicode="&#xbb;" horiz-adv-x="461" 
d="M149 295l-99 175h90l95 -175l-95 -175h-90zM333 295l-99 175h90l95 -175l-95 -175h-90z" />
    <glyph glyph-name="onequarter" unicode="&#xbc;" horiz-adv-x="642" 
d="M528 705l-362 -705h-90l362 705h90zM55 647v57h129v-352h-71v295h-58zM609 70h-48v-70h-72v70h-183v41l165 243h90v-240h48v-44zM492 288l-116 -172h116v172z" />
    <glyph glyph-name="onehalf" unicode="&#xbd;" horiz-adv-x="712" 
d="M520 706l-365 -706h-90l366 706h89zM115 647h-58v57h129v-352h-71v295zM658 55v-56h-265v50l121 97q32 26 48.5 50.5t16.5 55.5q0 27 -14.5 40t-38.5 13q-29 0 -45.5 -18t-19.5 -52h-71q4 53 41 88t103 35q57 0 88.5 -28.5t31.5 -72.5q0 -41 -26 -73.5t-81 -69.5l-83 -59
h194z" />
    <glyph glyph-name="threequarters" unicode="&#xbe;" horiz-adv-x="707" 
d="M297 683.5q35 -27.5 35 -72.5q0 -31 -17.5 -52t-52.5 -28v-3q74 -18 74 -84q0 -42 -35 -69t-97 -27q-69 0 -103.5 27.5t-40.5 81.5h74q4 -32 20.5 -45t44.5 -13q30 0 46 15t16 41q0 28 -19 43t-50 15h-50v31h49q31 0 48.5 15t17.5 44q0 24 -16.5 39.5t-43.5 15.5
q-55 0 -65 -54h-68q4 46 38.5 76.5t101.5 30.5q58 0 93 -27.5zM607 706l-356 -706h-89l355 706h90zM676 70h-48v-70h-71v70h-184v41l157 243h98v-240h48v-44zM560 295l-117 -181h117v181z" />
    <glyph glyph-name="questiondown" unicode="&#xbf;" horiz-adv-x="489" 
d="M108.5 -129.5q-58.5 53.5 -58.5 148.5q0 106 65.5 158.5t179.5 54.5v118h86v-180h-40q-92 0 -146.5 -32t-54.5 -119q0 -59 34.5 -93t93.5 -34q62 0 99.5 35t37.5 92h88q0 -60 -28 -106t-80 -71t-120 -25q-98 0 -156.5 53.5zM282 443v107h110v-107h-110z" />
    <glyph glyph-name="Agrave" unicode="&#xc0;" horiz-adv-x="662" 
d="M486 163h-310l-59 -163h-98l261 692h103l260 -692h-98zM460 234l-129 356l-129 -356h258zM373 814v-65l-213 117v74z" />
    <glyph glyph-name="Aacute" unicode="&#xc1;" horiz-adv-x="662" 
d="M486 163h-310l-59 -163h-98l261 692h103l260 -692h-98zM460 234l-129 356l-129 -356h258zM495 866l-213 -117v65l213 126v-74z" />
    <glyph glyph-name="Acircumflex" unicode="&#xc2;" horiz-adv-x="662" 
d="M486 163h-310l-59 -163h-98l261 692h103l260 -692h-98zM460 234l-129 356l-129 -356h258zM331 851l-139 -84v64l139 83l138 -83v-64z" />
    <glyph glyph-name="Atilde" unicode="&#xc3;" horiz-adv-x="662" 
d="M486 163h-310l-59 -163h-98l261 692h103l260 -692h-98zM460 234l-129 356l-129 -356h258zM305 862q15 -7 33 -20q18 -12 28.5 -17t24.5 -5q18 0 29.5 12t14.5 35h51q-7 -50 -32.5 -77t-64.5 -27q-21 0 -36.5 7t-34.5 20q-15 11 -26 16t-24 5q-37 0 -43 -47h-50
q8 53 32.5 79t63.5 26q19 0 34 -7z" />
    <glyph glyph-name="Adieresis" unicode="&#xc4;" horiz-adv-x="662" 
d="M486 163h-310l-59 -163h-98l261 692h103l260 -692h-98zM460 234l-129 356l-129 -356h258zM212.5 866.5q14.5 14.5 35.5 14.5t35.5 -14.5t14.5 -35.5q0 -20 -14.5 -34.5t-35.5 -14.5t-35.5 14.5t-14.5 34.5q0 21 14.5 35.5zM378.5 866.5q14.5 14.5 35.5 14.5t35.5 -14.5
t14.5 -35.5q0 -20 -14.5 -34.5t-35.5 -14.5t-35.5 14.5t-14.5 34.5q0 21 14.5 35.5z" />
    <glyph glyph-name="Aring" unicode="&#xc5;" horiz-adv-x="662" 
d="M486 163h-310l-59 -163h-98l261 692h103l260 -692h-98zM460 234l-129 356l-129 -356h258zM405 945.5q30 -28.5 30 -76.5t-30 -76.5t-75 -28.5q-44 0 -74.5 29t-30.5 76t30.5 76t74.5 29q45 0 75 -28.5zM286 915q-17 -17 -17 -46t17 -46t44 -17t44.5 17t17.5 46t-17.5 46
t-44.5 17t-44 -17z" />
    <glyph glyph-name="AE" unicode="&#xc6;" horiz-adv-x="890" 
d="M551 631v-239h265v-71h-265v-247h295v-74h-386v160h-262l-91 -160h-101l400 705h440v-74h-295zM460 230v391l-222 -391h222z" />
    <glyph glyph-name="Ccedilla" unicode="&#xc7;" horiz-adv-x="763" 
d="M598 648.5q84 -63.5 116 -173.5h-96q-27 70 -87 111.5t-147 41.5q-69 0 -123.5 -33.5t-86 -96t-31.5 -146.5q0 -83 31.5 -145t86 -95.5t123.5 -33.5q87 0 147 41.5t87 111.5h96q-32 -110 -116 -173.5t-213 -63.5q-99 0 -175 45.5t-118.5 127t-42.5 185.5q0 105 42.5 187
t118.5 127.5t175 45.5q129 0 213 -63.5zM504.5 -88.5q35.5 -23.5 35.5 -72.5q0 -48 -34 -73.5t-88 -25.5h-102v53h92q67 0 67 48q0 20 -16 32.5t-51 12.5h-54v121h59v-74q56 2 91.5 -21.5z" />
    <glyph glyph-name="Egrave" unicode="&#xc8;" horiz-adv-x="506" 
d="M164 631v-241h268v-70h-268v-246h298v-74h-389v705h389v-74h-298zM310 814v-65l-213 117v74z" />
    <glyph glyph-name="Eacute" unicode="&#xc9;" horiz-adv-x="506" 
d="M164 631v-241h268v-70h-268v-246h298v-74h-389v705h389v-74h-298zM432 866l-213 -117v65l213 126v-74z" />
    <glyph glyph-name="Ecircumflex" unicode="&#xca;" horiz-adv-x="506" 
d="M164 631v-241h268v-70h-268v-246h298v-74h-389v705h389v-74h-298zM268 851l-139 -84v64l139 83l138 -83v-64z" />
    <glyph glyph-name="Edieresis" unicode="&#xcb;" horiz-adv-x="506" 
d="M164 631v-241h268v-70h-268v-246h298v-74h-389v705h389v-74h-298zM149.5 866.5q14.5 14.5 35.5 14.5t35.5 -14.5t14.5 -35.5q0 -20 -14.5 -34.5t-35.5 -14.5t-35.5 14.5t-14.5 34.5q0 21 14.5 35.5zM315.5 866.5q14.5 14.5 35.5 14.5t35.5 -14.5t14.5 -35.5
q0 -20 -14.5 -34.5t-35.5 -14.5t-35.5 14.5t-14.5 34.5q0 21 14.5 35.5z" />
    <glyph glyph-name="Igrave" unicode="&#xcc;" horiz-adv-x="237" 
d="M164 705v-705h-91v705h91zM161 814v-65l-213 117v74z" />
    <glyph glyph-name="Iacute" unicode="&#xcd;" horiz-adv-x="237" 
d="M164 705v-705h-91v705h91zM283 866l-213 -117v65l213 126v-74z" />
    <glyph glyph-name="Icircumflex" unicode="&#xce;" horiz-adv-x="237" 
d="M164 705v-705h-91v705h91zM119 851l-139 -84v64l139 83l138 -83v-64z" />
    <glyph glyph-name="Idieresis" unicode="&#xcf;" horiz-adv-x="237" 
d="M164 705v-705h-91v705h91zM0.5 866.5q14.5 14.5 35.5 14.5t35.5 -14.5t14.5 -35.5q0 -20 -14.5 -34.5t-35.5 -14.5t-35.5 14.5t-14.5 34.5q0 21 14.5 35.5zM166.5 866.5q14.5 14.5 35.5 14.5t35.5 -14.5t14.5 -35.5q0 -20 -14.5 -34.5t-35.5 -14.5t-35.5 14.5t-14.5 34.5
q0 21 14.5 35.5z" />
    <glyph glyph-name="Eth" unicode="&#xd0;" horiz-adv-x="742" 
d="M523.5 662.5q83.5 -42.5 126.5 -122t43 -187.5q0 -107 -43 -186.5t-126.5 -123t-201.5 -43.5h-224v316h-92v74h92v315h224q118 0 201.5 -42.5zM527 153.5q73 71.5 73 199.5q0 129 -73 200.5t-212 71.5h-125v-235h197v-74h-197v-234h125q139 0 212 71.5z" />
    <glyph glyph-name="Ntilde" unicode="&#xd1;" horiz-adv-x="694" 
d="M621 0h-91l-366 557v-557h-91v705h91l366 -558v558h91v-705zM321 862q15 -7 33 -20q18 -12 28.5 -17t24.5 -5q18 0 29.5 12t14.5 35h51q-7 -50 -32.5 -77t-64.5 -27q-21 0 -36.5 7t-34.5 20q-15 11 -26 16t-24 5q-37 0 -43 -47h-50q8 53 32.5 79t63.5 26q19 0 34 -7z" />
    <glyph glyph-name="Ograve" unicode="&#xd2;" horiz-adv-x="791" 
d="M572.5 668q78.5 -46 123.5 -128.5t45 -186.5t-45 -186.5t-123.5 -128.5t-176.5 -46t-177.5 46t-124.5 128.5t-45 186.5t45 186.5t124.5 128.5t177.5 46t176.5 -46zM265.5 595.5q-57.5 -33.5 -90 -96t-32.5 -146.5q0 -83 32.5 -146t90 -96.5t130.5 -33.5q72 0 129.5 34
t90 96.5t32.5 145.5q0 84 -32.5 146.5t-90 96t-129.5 33.5q-73 0 -130.5 -33.5zM438 814v-65l-213 117v74z" />
    <glyph glyph-name="Oacute" unicode="&#xd3;" horiz-adv-x="791" 
d="M572.5 668q78.5 -46 123.5 -128.5t45 -186.5t-45 -186.5t-123.5 -128.5t-176.5 -46t-177.5 46t-124.5 128.5t-45 186.5t45 186.5t124.5 128.5t177.5 46t176.5 -46zM265.5 595.5q-57.5 -33.5 -90 -96t-32.5 -146.5q0 -83 32.5 -146t90 -96.5t130.5 -33.5q72 0 129.5 34
t90 96.5t32.5 145.5q0 84 -32.5 146.5t-90 96t-129.5 33.5q-73 0 -130.5 -33.5zM560 866l-213 -117v65l213 126v-74z" />
    <glyph glyph-name="Ocircumflex" unicode="&#xd4;" horiz-adv-x="791" 
d="M572.5 668q78.5 -46 123.5 -128.5t45 -186.5t-45 -186.5t-123.5 -128.5t-176.5 -46t-177.5 46t-124.5 128.5t-45 186.5t45 186.5t124.5 128.5t177.5 46t176.5 -46zM265.5 595.5q-57.5 -33.5 -90 -96t-32.5 -146.5q0 -83 32.5 -146t90 -96.5t130.5 -33.5q72 0 129.5 34
t90 96.5t32.5 145.5q0 84 -32.5 146.5t-90 96t-129.5 33.5q-73 0 -130.5 -33.5zM396 851l-139 -84v64l139 83l138 -83v-64z" />
    <glyph glyph-name="Otilde" unicode="&#xd5;" horiz-adv-x="791" 
d="M572.5 668q78.5 -46 123.5 -128.5t45 -186.5t-45 -186.5t-123.5 -128.5t-176.5 -46t-177.5 46t-124.5 128.5t-45 186.5t45 186.5t124.5 128.5t177.5 46t176.5 -46zM265.5 595.5q-57.5 -33.5 -90 -96t-32.5 -146.5q0 -83 32.5 -146t90 -96.5t130.5 -33.5q72 0 129.5 34
t90 96.5t32.5 145.5q0 84 -32.5 146.5t-90 96t-129.5 33.5q-73 0 -130.5 -33.5zM370 862q15 -7 33 -20q18 -12 28.5 -17t24.5 -5q18 0 29.5 12t14.5 35h51q-7 -50 -32.5 -77t-64.5 -27q-21 0 -36.5 7t-34.5 20q-15 11 -26 16t-24 5q-37 0 -43 -47h-50q8 53 32.5 79t63.5 26
q19 0 34 -7z" />
    <glyph glyph-name="Odieresis" unicode="&#xd6;" horiz-adv-x="791" 
d="M572.5 668q78.5 -46 123.5 -128.5t45 -186.5t-45 -186.5t-123.5 -128.5t-176.5 -46t-177.5 46t-124.5 128.5t-45 186.5t45 186.5t124.5 128.5t177.5 46t176.5 -46zM265.5 595.5q-57.5 -33.5 -90 -96t-32.5 -146.5q0 -83 32.5 -146t90 -96.5t130.5 -33.5q72 0 129.5 34
t90 96.5t32.5 145.5q0 84 -32.5 146.5t-90 96t-129.5 33.5q-73 0 -130.5 -33.5zM277.5 866.5q14.5 14.5 35.5 14.5t35.5 -14.5t14.5 -35.5q0 -20 -14.5 -34.5t-35.5 -14.5t-35.5 14.5t-14.5 34.5q0 21 14.5 35.5zM443.5 866.5q14.5 14.5 35.5 14.5t35.5 -14.5t14.5 -35.5
q0 -20 -14.5 -34.5t-35.5 -14.5t-35.5 14.5t-14.5 34.5q0 21 14.5 35.5z" />
    <glyph glyph-name="multiply" unicode="&#xd7;" horiz-adv-x="509" 
d="M415 147l-162 162l-160 -161l-59 59l160 161l-160 159l62 60l159 -158l157 158l59 -59l-157 -158l162 -162z" />
    <glyph glyph-name="Oslash" unicode="&#xd8;" horiz-adv-x="791" 
d="M651 604q43 -48 66.5 -112.5t23.5 -138.5q0 -104 -45 -186.5t-123.5 -128.5t-176.5 -46q-65 0 -123 21t-104 60l-66 -73h-57l93 103q-43 48 -66.5 112t-23.5 138q0 104 45 186.5t124.5 128.5t177.5 46q66 0 123 -21t102 -60l67 74h56zM200 169l362 400q-32 29 -74.5 44.5
t-91.5 15.5q-73 0 -130.5 -33.5t-90 -96t-32.5 -146.5q0 -110 57 -184zM591 538l-363 -400q69 -61 168 -61q72 0 129.5 34t90 96.5t32.5 145.5q0 111 -57 185z" />
    <glyph glyph-name="Ugrave" unicode="&#xd9;" horiz-adv-x="661" 
d="M159 705v-423q0 -104 46 -153.5t127 -49.5q80 0 125 50t45 153v423h91v-423q0 -144 -71.5 -216.5t-191.5 -72.5q-119 0 -190.5 72.5t-71.5 216.5v423h91zM372 814v-65l-213 117v74z" />
    <glyph glyph-name="Uacute" unicode="&#xda;" horiz-adv-x="661" 
d="M159 705v-423q0 -104 46 -153.5t127 -49.5q80 0 125 50t45 153v423h91v-423q0 -144 -71.5 -216.5t-191.5 -72.5q-119 0 -190.5 72.5t-71.5 216.5v423h91zM495 866l-213 -117v65l213 126v-74z" />
    <glyph glyph-name="Ucircumflex" unicode="&#xdb;" horiz-adv-x="661" 
d="M159 705v-423q0 -104 46 -153.5t127 -49.5q80 0 125 50t45 153v423h91v-423q0 -144 -71.5 -216.5t-191.5 -72.5q-119 0 -190.5 72.5t-71.5 216.5v423h91zM331 851l-139 -84v64l139 83l138 -83v-64z" />
    <glyph glyph-name="Udieresis" unicode="&#xdc;" horiz-adv-x="661" 
d="M159 705v-423q0 -104 46 -153.5t127 -49.5q80 0 125 50t45 153v423h91v-423q0 -144 -71.5 -216.5t-191.5 -72.5q-119 0 -190.5 72.5t-71.5 216.5v423h91zM212.5 866.5q14.5 14.5 35.5 14.5t35.5 -14.5t14.5 -35.5q0 -20 -14.5 -34.5t-35.5 -14.5t-35.5 14.5t-14.5 34.5
q0 21 14.5 35.5zM378.5 866.5q14.5 14.5 35.5 14.5t35.5 -14.5t14.5 -35.5q0 -20 -14.5 -34.5t-35.5 -14.5t-35.5 14.5t-14.5 34.5q0 21 14.5 35.5z" />
    <glyph glyph-name="Yacute" unicode="&#xdd;" horiz-adv-x="593" 
d="M574 705l-231 -438v-267h-92v267l-232 438h106l173 -341l172 341h104zM462 866l-213 -117v65l213 126v-74z" />
    <glyph glyph-name="Thorn" unicode="&#xde;" horiz-adv-x="571" 
d="M164 147v-147h-91v705h91v-144h133q121 0 181 -55.5t60 -152.5q0 -98 -62 -152t-179 -54h-133zM408.5 254q36.5 35 36.5 99q0 66 -36.5 100.5t-119.5 34.5h-125v-269h125q83 0 119.5 35z" />
    <glyph glyph-name="germandbls" unicode="&#xdf;" horiz-adv-x="654" 
d="M592 278q32 -48 32 -115q0 -49 -24 -88.5t-67 -62t-98 -22.5q-92 0 -143.5 50.5t-52.5 141.5h77q2 -51 30 -81.5t81 -30.5t80.5 30t27.5 70t-19.5 70.5t-70.5 63.5l-157 98v41l33 17q33 17 48 40.5t15 56.5q0 49 -29 79.5t-76 30.5q-53 0 -84 -32t-31 -87v-548h-91v531
q0 108 56.5 163.5t158.5 55.5q85 0 137 -45.5t52 -117.5q0 -47 -25 -82t-79 -59l-3 -1l116 -74q74 -45 106 -93z" />
    <glyph glyph-name="agrave" unicode="&#xe0;" horiz-adv-x="674" 
d="M433.5 516q55.5 -40 77.5 -107v140h91v-549h-91v140q-22 -67 -77.5 -107t-135.5 -40q-73 0 -130 34t-89.5 97.5t-32.5 149.5t32.5 150t89.5 98t130 34q80 0 135.5 -40zM189.5 421.5q-50.5 -53.5 -50.5 -147.5t50.5 -147.5t134.5 -53.5q54 0 96.5 25t66.5 70.5t24 105.5
t-24 106t-66.5 70.5t-96.5 24.5q-84 0 -134.5 -53.5zM366 657v-65l-213 117v74z" />
    <glyph glyph-name="aacute" unicode="&#xe1;" horiz-adv-x="674" 
d="M433.5 516q55.5 -40 77.5 -107v140h91v-549h-91v140q-22 -67 -77.5 -107t-135.5 -40q-73 0 -130 34t-89.5 97.5t-32.5 149.5t32.5 150t89.5 98t130 34q80 0 135.5 -40zM189.5 421.5q-50.5 -53.5 -50.5 -147.5t50.5 -147.5t134.5 -53.5q54 0 96.5 25t66.5 70.5t24 105.5
t-24 106t-66.5 70.5t-96.5 24.5q-84 0 -134.5 -53.5zM489 709l-213 -117v65l213 126v-74z" />
    <glyph glyph-name="acircumflex" unicode="&#xe2;" horiz-adv-x="674" 
d="M433.5 516q55.5 -40 77.5 -107v140h91v-549h-91v140q-22 -67 -77.5 -107t-135.5 -40q-73 0 -130 34t-89.5 97.5t-32.5 149.5t32.5 150t89.5 98t130 34q80 0 135.5 -40zM189.5 421.5q-50.5 -53.5 -50.5 -147.5t50.5 -147.5t134.5 -53.5q54 0 96.5 25t66.5 70.5t24 105.5
t-24 106t-66.5 70.5t-96.5 24.5q-84 0 -134.5 -53.5zM324 694l-139 -84v64l139 83l138 -83v-64z" />
    <glyph glyph-name="atilde" unicode="&#xe3;" horiz-adv-x="674" 
d="M433.5 516q55.5 -40 77.5 -107v140h91v-549h-91v140q-22 -67 -77.5 -107t-135.5 -40q-73 0 -130 34t-89.5 97.5t-32.5 149.5t32.5 150t89.5 98t130 34q80 0 135.5 -40zM189.5 421.5q-50.5 -53.5 -50.5 -147.5t50.5 -147.5t134.5 -53.5q54 0 96.5 25t66.5 70.5t24 105.5
t-24 106t-66.5 70.5t-96.5 24.5q-84 0 -134.5 -53.5zM298 705q15 -7 33 -20q18 -12 28.5 -17t24.5 -5q18 0 29.5 12t14.5 35h51q-7 -50 -32.5 -77t-64.5 -27q-21 0 -36.5 7t-34.5 20q-15 11 -26 16t-24 5q-37 0 -43 -47h-50q8 53 32.5 79t63.5 26q19 0 34 -7z" />
    <glyph glyph-name="adieresis" unicode="&#xe4;" horiz-adv-x="674" 
d="M433.5 516q55.5 -40 77.5 -107v140h91v-549h-91v140q-22 -67 -77.5 -107t-135.5 -40q-73 0 -130 34t-89.5 97.5t-32.5 149.5t32.5 150t89.5 98t130 34q80 0 135.5 -40zM189.5 421.5q-50.5 -53.5 -50.5 -147.5t50.5 -147.5t134.5 -53.5q54 0 96.5 25t66.5 70.5t24 105.5
t-24 106t-66.5 70.5t-96.5 24.5q-84 0 -134.5 -53.5zM205.5 709.5q14.5 14.5 35.5 14.5t35.5 -14.5t14.5 -35.5q0 -20 -14.5 -34.5t-35.5 -14.5t-35.5 14.5t-14.5 34.5q0 21 14.5 35.5zM371.5 709.5q14.5 14.5 35.5 14.5t35.5 -14.5t14.5 -35.5q0 -20 -14.5 -34.5
t-35.5 -14.5t-35.5 14.5t-14.5 34.5q0 21 14.5 35.5z" />
    <glyph glyph-name="aring" unicode="&#xe5;" horiz-adv-x="674" 
d="M433.5 516q55.5 -40 77.5 -107v140h91v-549h-91v140q-22 -67 -77.5 -107t-135.5 -40q-73 0 -130 34t-89.5 97.5t-32.5 149.5t32.5 150t89.5 98t130 34q80 0 135.5 -40zM189.5 421.5q-50.5 -53.5 -50.5 -147.5t50.5 -147.5t134.5 -53.5q54 0 96.5 25t66.5 70.5t24 105.5
t-24 106t-66.5 70.5t-96.5 24.5q-84 0 -134.5 -53.5zM398 788.5q30 -28.5 30 -76.5t-30 -76.5t-75 -28.5q-44 0 -74.5 29t-30.5 76t30.5 76t74.5 29q45 0 75 -28.5zM279 758q-17 -17 -17 -46t17 -46t44 -17t44.5 17t17.5 46t-17.5 46t-44.5 17t-44 -17z" />
    <glyph glyph-name="ae" unicode="&#xe6;" horiz-adv-x="1106" 
d="M1056 255h-452q4 -94 56 -141.5t128 -47.5q68 0 114.5 33t57.5 91h96q-15 -88 -79 -142.5t-161 -54.5q-79 0 -136 38t-78 109v-140h-91v140q-22 -67 -77.5 -107t-135.5 -40q-73 0 -130 34t-89.5 97.5t-32.5 149.5t32.5 150t89.5 98t130 34q80 0 135.5 -40t77.5 -107v140
h91v-141q20 71 77.5 109.5t136.5 38.5q76 0 131 -34t84 -91t29 -126q0 -29 -4 -50zM947.5 401q-24.5 41 -66.5 61t-91 20q-76 0 -129 -45.5t-57 -137.5h365q3 61 -21.5 102zM420.5 98q42.5 25 66.5 70.5t24 105.5t-24 106t-66.5 70.5t-96.5 24.5q-84 0 -134.5 -53.5
t-50.5 -147.5t50.5 -147.5t134.5 -53.5q54 0 96.5 25z" />
    <glyph glyph-name="ccedilla" unicode="&#xe7;" horiz-adv-x="621" 
d="M490 500q69 -56 85 -150h-96q-10 59 -54.5 92.5t-110.5 33.5q-48 0 -87.5 -22t-63.5 -67.5t-24 -112.5t24 -112.5t63.5 -67.5t87.5 -22q66 0 110.5 34t54.5 93h96q-16 -95 -85 -150.5t-174 -55.5q-79 0 -140 34t-95.5 97.5t-34.5 149.5t34.5 150t95.5 98t140 34
q105 0 174 -56zM419.5 -88.5q35.5 -23.5 35.5 -72.5q0 -48 -34 -73.5t-88 -25.5h-102v53h92q67 0 67 48q0 20 -16 32.5t-51 12.5h-54v121h59v-74q56 2 91.5 -21.5z" />
    <glyph glyph-name="egrave" unicode="&#xe8;" horiz-adv-x="624" 
d="M574 255h-439q3 -94 53.5 -141t123.5 -47q66 0 110.5 33.5t54.5 89.5h97q-10 -57 -44.5 -102t-89.5 -70t-124 -25q-79 0 -140 34t-95.5 97.5t-34.5 149.5t34.5 150t95.5 98t140 34q80 0 139.5 -34t91 -91t31.5 -126q0 -29 -4 -50zM466 401q-23 41 -63 61t-87 20
q-75 0 -126 -46.5t-55 -136.5h351q3 61 -20 102zM354 657v-65l-213 117v74z" />
    <glyph glyph-name="eacute" unicode="&#xe9;" horiz-adv-x="624" 
d="M574 255h-439q3 -94 53.5 -141t123.5 -47q66 0 110.5 33.5t54.5 89.5h97q-10 -57 -44.5 -102t-89.5 -70t-124 -25q-79 0 -140 34t-95.5 97.5t-34.5 149.5t34.5 150t95.5 98t140 34q80 0 139.5 -34t91 -91t31.5 -126q0 -29 -4 -50zM466 401q-23 41 -63 61t-87 20
q-75 0 -126 -46.5t-55 -136.5h351q3 61 -20 102zM477 709l-213 -117v65l213 126v-74z" />
    <glyph glyph-name="ecircumflex" unicode="&#xea;" horiz-adv-x="624" 
d="M574 255h-439q3 -94 53.5 -141t123.5 -47q66 0 110.5 33.5t54.5 89.5h97q-10 -57 -44.5 -102t-89.5 -70t-124 -25q-79 0 -140 34t-95.5 97.5t-34.5 149.5t34.5 150t95.5 98t140 34q80 0 139.5 -34t91 -91t31.5 -126q0 -29 -4 -50zM466 401q-23 41 -63 61t-87 20
q-75 0 -126 -46.5t-55 -136.5h351q3 61 -20 102zM313 694l-139 -84v64l139 83l138 -83v-64z" />
    <glyph glyph-name="edieresis" unicode="&#xeb;" horiz-adv-x="624" 
d="M574 255h-439q3 -94 53.5 -141t123.5 -47q66 0 110.5 33.5t54.5 89.5h97q-10 -57 -44.5 -102t-89.5 -70t-124 -25q-79 0 -140 34t-95.5 97.5t-34.5 149.5t34.5 150t95.5 98t140 34q80 0 139.5 -34t91 -91t31.5 -126q0 -29 -4 -50zM466 401q-23 41 -63 61t-87 20
q-75 0 -126 -46.5t-55 -136.5h351q3 61 -20 102zM193.5 709.5q14.5 14.5 35.5 14.5t35.5 -14.5t14.5 -35.5q0 -20 -14.5 -34.5t-35.5 -14.5t-35.5 14.5t-14.5 34.5q0 21 14.5 35.5zM359.5 709.5q14.5 14.5 35.5 14.5t35.5 -14.5t14.5 -35.5q0 -20 -14.5 -34.5t-35.5 -14.5
t-35.5 14.5t-14.5 34.5q0 21 14.5 35.5z" />
    <glyph glyph-name="igrave" unicode="&#xec;" horiz-adv-x="255" 
d="M173 549v-549h-92v549h92zM170 657v-65l-213 117v74z" />
    <glyph glyph-name="iacute" unicode="&#xed;" horiz-adv-x="255" 
d="M173 549v-549h-92v549h92zM292 709l-213 -117v65l213 126v-74z" />
    <glyph glyph-name="icircumflex" unicode="&#xee;" horiz-adv-x="255" 
d="M173 549v-549h-92v549h92zM128 694l-139 -84v64l139 83l138 -83v-64z" />
    <glyph glyph-name="idieresis" unicode="&#xef;" horiz-adv-x="255" 
d="M173 549v-549h-92v549h92zM9.5 709.5q14.5 14.5 35.5 14.5t35.5 -14.5t14.5 -35.5q0 -20 -14.5 -34.5t-35.5 -14.5t-35.5 14.5t-14.5 34.5q0 21 14.5 35.5zM175.5 709.5q14.5 14.5 35.5 14.5t35.5 -14.5t14.5 -35.5q0 -20 -14.5 -34.5t-35.5 -14.5t-35.5 14.5t-14.5 34.5
q0 21 14.5 35.5z" />
    <glyph glyph-name="eth" unicode="&#xf0;" horiz-adv-x="644" 
d="M598 311q0 -103 -35 -174.5t-96.5 -107.5t-141.5 -36q-82 0 -145.5 36.5t-98.5 103t-35 152.5q0 82 34 144t95 95.5t140 33.5q63 0 113.5 -33.5t74.5 -99.5q-13 64 -39.5 118.5t-71.5 105.5l-136 -46v38l109 37q-38 36 -70 62h83q17 -14 47 -42l122 41v-37l-94 -32
q145 -157 145 -359zM417 96.5q41 23.5 64.5 68.5t23.5 109q0 65 -24.5 111t-66 69.5t-91.5 23.5q-80 0 -132 -50.5t-52 -142.5q0 -67 24.5 -115t66.5 -72.5t95 -24.5q51 0 92 23.5z" />
    <glyph glyph-name="ntilde" unicode="&#xf1;" horiz-adv-x="643" 
d="M517 496.5q59 -61.5 59 -177.5v-319h-91v311q0 82 -42 126t-114 44q-75 0 -120 -48.5t-45 -141.5v-291h-91v549h91v-130q21 67 74.5 103t123.5 36q96 0 155 -61.5zM298 705q15 -7 33 -20q18 -12 28.5 -17t24.5 -5q18 0 29.5 12t14.5 35h51q-7 -50 -32.5 -77t-64.5 -27
q-21 0 -36.5 7t-34.5 20q-15 11 -26 16t-24 5q-37 0 -43 -47h-50q8 53 32.5 79t63.5 26q19 0 34 -7z" />
    <glyph glyph-name="ograve" unicode="&#xf2;" horiz-adv-x="643" 
d="M463.5 522q62.5 -34 98 -98t35.5 -150t-35.5 -149.5t-98 -97.5t-141.5 -34t-141.5 34t-98.5 97.5t-36 149.5t36 150t98.5 98t141.5 34t141.5 -34zM231.5 454q-41.5 -22 -67 -67.5t-25.5 -112.5q0 -66 25.5 -111.5t67 -67.5t90.5 -22t90.5 22t67 67.5t25.5 111.5
q0 67 -25.5 112.5t-67 67.5t-90.5 22t-90.5 -22zM364 657v-65l-213 117v74z" />
    <glyph glyph-name="oacute" unicode="&#xf3;" horiz-adv-x="643" 
d="M463.5 522q62.5 -34 98 -98t35.5 -150t-35.5 -149.5t-98 -97.5t-141.5 -34t-141.5 34t-98.5 97.5t-36 149.5t36 150t98.5 98t141.5 34t141.5 -34zM231.5 454q-41.5 -22 -67 -67.5t-25.5 -112.5q0 -66 25.5 -111.5t67 -67.5t90.5 -22t90.5 22t67 67.5t25.5 111.5
q0 67 -25.5 112.5t-67 67.5t-90.5 22t-90.5 -22zM486 709l-213 -117v65l213 126v-74z" />
    <glyph glyph-name="ocircumflex" unicode="&#xf4;" horiz-adv-x="643" 
d="M463.5 522q62.5 -34 98 -98t35.5 -150t-35.5 -149.5t-98 -97.5t-141.5 -34t-141.5 34t-98.5 97.5t-36 149.5t36 150t98.5 98t141.5 34t141.5 -34zM231.5 454q-41.5 -22 -67 -67.5t-25.5 -112.5q0 -66 25.5 -111.5t67 -67.5t90.5 -22t90.5 22t67 67.5t25.5 111.5
q0 67 -25.5 112.5t-67 67.5t-90.5 22t-90.5 -22zM322 694l-139 -84v64l139 83l138 -83v-64z" />
    <glyph glyph-name="otilde" unicode="&#xf5;" horiz-adv-x="643" 
d="M463.5 522q62.5 -34 98 -98t35.5 -150t-35.5 -149.5t-98 -97.5t-141.5 -34t-141.5 34t-98.5 97.5t-36 149.5t36 150t98.5 98t141.5 34t141.5 -34zM231.5 454q-41.5 -22 -67 -67.5t-25.5 -112.5q0 -66 25.5 -111.5t67 -67.5t90.5 -22t90.5 22t67 67.5t25.5 111.5
q0 67 -25.5 112.5t-67 67.5t-90.5 22t-90.5 -22zM296 705q15 -7 33 -20q18 -12 28.5 -17t24.5 -5q18 0 29.5 12t14.5 35h51q-7 -50 -32.5 -77t-64.5 -27q-21 0 -36.5 7t-34.5 20q-15 11 -26 16t-24 5q-37 0 -43 -47h-50q8 53 32.5 79t63.5 26q19 0 34 -7z" />
    <glyph glyph-name="odieresis" unicode="&#xf6;" horiz-adv-x="643" 
d="M463.5 522q62.5 -34 98 -98t35.5 -150t-35.5 -149.5t-98 -97.5t-141.5 -34t-141.5 34t-98.5 97.5t-36 149.5t36 150t98.5 98t141.5 34t141.5 -34zM231.5 454q-41.5 -22 -67 -67.5t-25.5 -112.5q0 -66 25.5 -111.5t67 -67.5t90.5 -22t90.5 22t67 67.5t25.5 111.5
q0 67 -25.5 112.5t-67 67.5t-90.5 22t-90.5 -22zM203.5 709.5q14.5 14.5 35.5 14.5t35.5 -14.5t14.5 -35.5q0 -20 -14.5 -34.5t-35.5 -14.5t-35.5 14.5t-14.5 34.5q0 21 14.5 35.5zM369.5 709.5q14.5 14.5 35.5 14.5t35.5 -14.5t14.5 -35.5q0 -20 -14.5 -34.5t-35.5 -14.5
t-35.5 14.5t-14.5 34.5q0 21 14.5 35.5z" />
    <glyph glyph-name="divide" unicode="&#xf7;" horiz-adv-x="576" 
d="M343 640v-106h-111v106h111zM543 407v-83h-510v83h510zM343 200v-106h-111v106h111z" />
    <glyph glyph-name="oslash" unicode="&#xf8;" horiz-adv-x="638" 
d="M524 472q34 -37 52 -87.5t18 -110.5q0 -86 -35.5 -149.5t-98 -97.5t-141.5 -34q-105 0 -178 58l-46 -51h-50l69 76q-71 76 -71 198q0 86 36 150t98.5 98t141.5 34q52 0 97.5 -15t80.5 -44l47 52h51zM174 142l265 292q-24 21 -55 31.5t-65 10.5q-49 0 -90.5 -22t-67 -67.5
t-25.5 -112.5q0 -79 38 -132zM465 406l-265 -291q48 -42 119 -42q49 0 90.5 22t67 67.5t25.5 111.5q0 81 -37 132z" />
    <glyph glyph-name="ugrave" unicode="&#xf9;" horiz-adv-x="634" 
d="M561 549v-549h-91v129q-21 -67 -74.5 -102.5t-124.5 -35.5q-95 0 -154 61.5t-59 176.5v320h91v-311q0 -82 42 -126.5t114 -44.5q75 0 120 48.5t45 141.5v292h91zM352 657v-65l-213 117v74z" />
    <glyph glyph-name="uacute" unicode="&#xfa;" horiz-adv-x="634" 
d="M561 549v-549h-91v129q-21 -67 -74.5 -102.5t-124.5 -35.5q-95 0 -154 61.5t-59 176.5v320h91v-311q0 -82 42 -126.5t114 -44.5q75 0 120 48.5t45 141.5v292h91zM474 709l-213 -117v65l213 126v-74z" />
    <glyph glyph-name="ucircumflex" unicode="&#xfb;" horiz-adv-x="634" 
d="M561 549v-549h-91v129q-21 -67 -74.5 -102.5t-124.5 -35.5q-95 0 -154 61.5t-59 176.5v320h91v-311q0 -82 42 -126.5t114 -44.5q75 0 120 48.5t45 141.5v292h91zM310 694l-139 -84v64l139 83l138 -83v-64z" />
    <glyph glyph-name="udieresis" unicode="&#xfc;" horiz-adv-x="634" 
d="M561 549v-549h-91v129q-21 -67 -74.5 -102.5t-124.5 -35.5q-95 0 -154 61.5t-59 176.5v320h91v-311q0 -82 42 -126.5t114 -44.5q75 0 120 48.5t45 141.5v292h91zM191.5 709.5q14.5 14.5 35.5 14.5t35.5 -14.5t14.5 -35.5q0 -20 -14.5 -34.5t-35.5 -14.5t-35.5 14.5
t-14.5 34.5q0 21 14.5 35.5zM357.5 709.5q14.5 14.5 35.5 14.5t35.5 -14.5t14.5 -35.5q0 -20 -14.5 -34.5t-35.5 -14.5t-35.5 14.5t-14.5 34.5q0 21 14.5 35.5z" />
    <glyph glyph-name="yacute" unicode="&#xfd;" horiz-adv-x="565" 
d="M111 549l178 -432l165 432h101l-326 -809h-103l114 269l-231 540h102zM447 709l-213 -117v65l213 126v-74z" />
    <glyph glyph-name="thorn" unicode="&#xfe;" horiz-adv-x="674" 
d="M502.5 519q58.5 -35 92 -98.5t33.5 -147.5t-33.5 -147.5t-92 -98t-132.5 -34.5q-75 0 -128.5 38t-77.5 103v-394h-91v1000h91v-321q24 62 77.5 98.5t128.5 36.5q74 0 132.5 -35zM255.5 450.5q-42.5 -24.5 -67 -70t-24.5 -106.5t24.5 -106.5t67 -70t94.5 -24.5
q83 0 134.5 52.5t51.5 147.5t-52 148.5t-134 53.5q-52 0 -94.5 -24.5z" />
    <glyph glyph-name="ydieresis" unicode="&#xff;" horiz-adv-x="565" 
d="M111 549l178 -432l165 432h101l-326 -809h-103l114 269l-231 540h102zM163.5 709.5q14.5 14.5 35.5 14.5t35.5 -14.5t14.5 -35.5q0 -20 -14.5 -34.5t-35.5 -14.5t-35.5 14.5t-14.5 34.5q0 21 14.5 35.5zM329.5 709.5q14.5 14.5 35.5 14.5t35.5 -14.5t14.5 -35.5
q0 -20 -14.5 -34.5t-35.5 -14.5t-35.5 14.5t-14.5 34.5q0 21 14.5 35.5z" />
    <glyph glyph-name="Amacron" unicode="&#x100;" horiz-adv-x="662" 
d="M486 163h-310l-59 -163h-98l261 692h103l260 -692h-98zM460 234l-129 356l-129 -356h258zM508 867v-64h-353v64h353z" />
    <glyph glyph-name="amacron" unicode="&#x101;" horiz-adv-x="674" 
d="M433.5 516q55.5 -40 77.5 -107v140h91v-549h-91v140q-22 -67 -77.5 -107t-135.5 -40q-73 0 -130 34t-89.5 97.5t-32.5 149.5t32.5 150t89.5 98t130 34q80 0 135.5 -40zM189.5 421.5q-50.5 -53.5 -50.5 -147.5t50.5 -147.5t134.5 -53.5q54 0 96.5 25t66.5 70.5t24 105.5
t-24 106t-66.5 70.5t-96.5 24.5q-84 0 -134.5 -53.5zM501 710v-64h-353v64h353z" />
    <glyph glyph-name="Abreve" unicode="&#x102;" horiz-adv-x="662" 
d="M486 163h-310l-59 -163h-98l261 692h103l260 -692h-98zM460 234l-129 356l-129 -356h258zM225 806q-38 39 -38 100v9h50q0 -39 23 -59.5t70 -20.5t70.5 20.5t23.5 59.5h49v-9q0 -61 -38 -100t-105 -39t-105 39z" />
    <glyph glyph-name="abreve" unicode="&#x103;" horiz-adv-x="674" 
d="M433.5 516q55.5 -40 77.5 -107v140h91v-549h-91v140q-22 -67 -77.5 -107t-135.5 -40q-73 0 -130 34t-89.5 97.5t-32.5 149.5t32.5 150t89.5 98t130 34q80 0 135.5 -40zM189.5 421.5q-50.5 -53.5 -50.5 -147.5t50.5 -147.5t134.5 -53.5q54 0 96.5 25t66.5 70.5t24 105.5
t-24 106t-66.5 70.5t-96.5 24.5q-84 0 -134.5 -53.5zM219 649q-38 39 -38 100v9h50q0 -39 23 -59.5t70 -20.5t70.5 20.5t23.5 59.5h49v-9q0 -61 -38 -100t-105 -39t-105 39z" />
    <glyph glyph-name="Aogonek" unicode="&#x104;" horiz-adv-x="662" 
d="M682 -147v-53h-103q-57 0 -92.5 27t-35.5 77q0 38 22.5 63.5t70.5 34.5l-58 161h-310l-59 -163h-98l261 692h103l258 -687v-45h-54q-33 0 -51.5 -14t-18.5 -39t18.5 -39.5t51.5 -14.5h95zM460 234l-129 356l-129 -356h258z" />
    <glyph glyph-name="aogonek" unicode="&#x105;" horiz-adv-x="674" 
d="M433.5 516q55.5 -40 77.5 -107v140h91v-549h-91v140q-22 -67 -77.5 -107t-135.5 -40q-73 0 -130 34t-89.5 97.5t-32.5 149.5t32.5 150t89.5 98t130 34q80 0 135.5 -40zM189.5 421.5q-50.5 -53.5 -50.5 -147.5t50.5 -147.5t134.5 -53.5q54 0 96.5 25t66.5 70.5t24 105.5
t-24 106t-66.5 70.5t-96.5 24.5q-84 0 -134.5 -53.5zM602 11v-49h-54q-32 0 -51 -14t-19 -39t19 -40t51 -15h96v-53h-104q-56 0 -91.5 27.5t-35.5 77.5q0 49 34 77t86 28h69z" />
    <glyph glyph-name="Cacute" unicode="&#x106;" horiz-adv-x="763" 
d="M598 648.5q84 -63.5 116 -173.5h-96q-27 70 -87 111.5t-147 41.5q-69 0 -123.5 -33.5t-86 -96t-31.5 -146.5q0 -83 31.5 -145t86 -95.5t123.5 -33.5q87 0 147 41.5t87 111.5h96q-32 -110 -116 -173.5t-213 -63.5q-99 0 -175 45.5t-118.5 127t-42.5 185.5q0 105 42.5 187
t118.5 127.5t175 45.5q129 0 213 -63.5zM546 866l-213 -117v65l213 126v-74z" />
    <glyph glyph-name="cacute" unicode="&#x107;" horiz-adv-x="621" 
d="M490 500q69 -56 85 -150h-96q-10 59 -54.5 92.5t-110.5 33.5q-48 0 -87.5 -22t-63.5 -67.5t-24 -112.5t24 -112.5t63.5 -67.5t87.5 -22q66 0 110.5 34t54.5 93h96q-16 -95 -85 -150.5t-174 -55.5q-79 0 -140 34t-95.5 97.5t-34.5 149.5t34.5 150t95.5 98t140 34
q105 0 174 -56zM475 709l-213 -117v65l213 126v-74z" />
    <glyph glyph-name="Cdotaccent" unicode="&#x10a;" horiz-adv-x="763" 
d="M598 648.5q84 -63.5 116 -173.5h-96q-27 70 -87 111.5t-147 41.5q-69 0 -123.5 -33.5t-86 -96t-31.5 -146.5q0 -83 31.5 -145t86 -95.5t123.5 -33.5q87 0 147 41.5t87 111.5h96q-32 -110 -116 -173.5t-213 -63.5q-99 0 -175 45.5t-118.5 127t-42.5 185.5q0 105 42.5 187
t118.5 127.5t175 45.5q129 0 213 -63.5zM345.5 866.5q14.5 14.5 34.5 14.5q21 0 36 -14.5t15 -35.5q0 -20 -15 -34.5t-36 -14.5q-20 0 -34.5 14.5t-14.5 34.5q0 21 14.5 35.5z" />
    <glyph glyph-name="cdotaccent" unicode="&#x10b;" horiz-adv-x="621" 
d="M490 500q69 -56 85 -150h-96q-10 59 -54.5 92.5t-110.5 33.5q-48 0 -87.5 -22t-63.5 -67.5t-24 -112.5t24 -112.5t63.5 -67.5t87.5 -22q66 0 110.5 34t54.5 93h96q-16 -95 -85 -150.5t-174 -55.5q-79 0 -140 34t-95.5 97.5t-34.5 149.5t34.5 150t95.5 98t140 34
q105 0 174 -56zM275.5 709.5q14.5 14.5 34.5 14.5q21 0 36 -14.5t15 -35.5q0 -20 -15 -34.5t-36 -14.5q-20 0 -34.5 14.5t-14.5 34.5q0 21 14.5 35.5z" />
    <glyph glyph-name="Ccaron" unicode="&#x10c;" horiz-adv-x="763" 
d="M598 648.5q84 -63.5 116 -173.5h-96q-27 70 -87 111.5t-147 41.5q-69 0 -123.5 -33.5t-86 -96t-31.5 -146.5q0 -83 31.5 -145t86 -95.5t123.5 -33.5q87 0 147 41.5t87 111.5h96q-32 -110 -116 -173.5t-213 -63.5q-99 0 -175 45.5t-118.5 127t-42.5 185.5q0 105 42.5 187
t118.5 127.5t175 45.5q129 0 213 -63.5zM520 848l-138 -83l-139 83v64l139 -84l138 84v-64z" />
    <glyph glyph-name="ccaron" unicode="&#x10d;" horiz-adv-x="621" 
d="M490 500q69 -56 85 -150h-96q-10 59 -54.5 92.5t-110.5 33.5q-48 0 -87.5 -22t-63.5 -67.5t-24 -112.5t24 -112.5t63.5 -67.5t87.5 -22q66 0 110.5 34t54.5 93h96q-16 -95 -85 -150.5t-174 -55.5q-79 0 -140 34t-95.5 97.5t-34.5 149.5t34.5 150t95.5 98t140 34
q105 0 174 -56zM449 691l-138 -83l-139 83v64l139 -84l138 84v-64z" />
    <glyph glyph-name="Dcaron" unicode="&#x10e;" horiz-adv-x="717" 
d="M624 166.5q-43 -79.5 -126.5 -123t-200.5 -43.5h-224v705h224q117 0 200.5 -42.5t126.5 -122t43 -187.5q0 -107 -43 -186.5zM501 153q73 71 73 200t-72.5 200.5t-211.5 71.5h-126v-543h126q138 0 211 71zM508 848l-138 -83l-139 83v64l139 -84l138 84v-64z" />
    <glyph glyph-name="dcaron" unicode="&#x10f;" horiz-adv-x="746" 
d="M433.5 516q55.5 -40 77.5 -107v331h91v-740h-91v140q-22 -67 -77.5 -107t-135.5 -40q-73 0 -130 34t-89.5 97.5t-32.5 149.5t32.5 150t89.5 98t130 34q80 0 135.5 -40zM762 648q0 -56 -25.5 -84.5t-75.5 -28.5v41q26 0 37 13.5t11 41.5v23h-50v86h92q11 -48 11 -92z
M189.5 421.5q-50.5 -53.5 -50.5 -147.5t50.5 -147.5t134.5 -53.5q54 0 96.5 25t66.5 70.5t24 105.5t-24 106t-66.5 70.5t-96.5 24.5q-84 0 -134.5 -53.5z" />
    <glyph glyph-name="Dcroat" unicode="&#x110;" horiz-adv-x="742" 
d="M523.5 662.5q83.5 -42.5 126.5 -122t43 -187.5q0 -107 -43 -186.5t-126.5 -123t-201.5 -43.5h-224v316h-92v74h92v315h224q118 0 201.5 -42.5zM527 153.5q73 71.5 73 199.5q0 129 -73 200.5t-212 71.5h-125v-235h197v-74h-197v-234h125q139 0 212 71.5z" />
    <glyph glyph-name="dcroat" unicode="&#x111;" horiz-adv-x="678" 
d="M668 629h-66v-629h-91v140q-22 -67 -77.5 -107t-135.5 -40q-73 0 -130 34t-89.5 97.5t-32.5 149.5t32.5 150t89.5 98t130 34q80 0 135.5 -40t77.5 -107v220h-154v46h154v65h91v-65h66v-46zM420.5 98q42.5 25 66.5 70.5t24 105.5t-24 106t-66.5 70.5t-96.5 24.5
q-84 0 -134.5 -53.5t-50.5 -147.5t50.5 -147.5t134.5 -53.5q54 0 96.5 25z" />
    <glyph glyph-name="Emacron" unicode="&#x112;" horiz-adv-x="506" 
d="M164 631v-241h268v-70h-268v-246h298v-74h-389v705h389v-74h-298zM444 867v-64h-353v64h353z" />
    <glyph glyph-name="emacron" unicode="&#x113;" horiz-adv-x="624" 
d="M574 255h-439q3 -94 53.5 -141t123.5 -47q66 0 110.5 33.5t54.5 89.5h97q-10 -57 -44.5 -102t-89.5 -70t-124 -25q-79 0 -140 34t-95.5 97.5t-34.5 149.5t34.5 150t95.5 98t140 34q80 0 139.5 -34t91 -91t31.5 -126q0 -29 -4 -50zM466 401q-23 41 -63 61t-87 20
q-75 0 -126 -46.5t-55 -136.5h351q3 61 -20 102zM489 710v-64h-353v64h353z" />
    <glyph glyph-name="Ebreve" unicode="&#x114;" horiz-adv-x="506" 
d="M164 631v-241h268v-70h-268v-246h298v-74h-389v705h389v-74h-298zM162 806q-38 39 -38 100v9h50q0 -39 23 -59.5t70 -20.5t70.5 20.5t23.5 59.5h49v-9q0 -61 -38 -100t-105 -39t-105 39z" />
    <glyph glyph-name="ebreve" unicode="&#x115;" horiz-adv-x="624" 
d="M574 255h-439q3 -94 53.5 -141t123.5 -47q66 0 110.5 33.5t54.5 89.5h97q-10 -57 -44.5 -102t-89.5 -70t-124 -25q-79 0 -140 34t-95.5 97.5t-34.5 149.5t34.5 150t95.5 98t140 34q80 0 139.5 -34t91 -91t31.5 -126q0 -29 -4 -50zM466 401q-23 41 -63 61t-87 20
q-75 0 -126 -46.5t-55 -136.5h351q3 61 -20 102zM207 649q-38 39 -38 100v9h50q0 -39 23 -59.5t70 -20.5t70.5 20.5t23.5 59.5h49v-9q0 -61 -38 -100t-105 -39t-105 39z" />
    <glyph glyph-name="Edotaccent" unicode="&#x116;" horiz-adv-x="506" 
d="M164 631v-241h268v-70h-268v-246h298v-74h-389v705h389v-74h-298zM232.5 866.5q14.5 14.5 34.5 14.5q21 0 36 -14.5t15 -35.5q0 -20 -15 -34.5t-36 -14.5q-20 0 -34.5 14.5t-14.5 34.5q0 21 14.5 35.5z" />
    <glyph glyph-name="edotaccent" unicode="&#x117;" horiz-adv-x="624" 
d="M574 255h-439q3 -94 53.5 -141t123.5 -47q66 0 110.5 33.5t54.5 89.5h97q-10 -57 -44.5 -102t-89.5 -70t-124 -25q-79 0 -140 34t-95.5 97.5t-34.5 149.5t34.5 150t95.5 98t140 34q80 0 139.5 -34t91 -91t31.5 -126q0 -29 -4 -50zM466 401q-23 41 -63 61t-87 20
q-75 0 -126 -46.5t-55 -136.5h351q3 61 -20 102zM276.5 709.5q14.5 14.5 34.5 14.5q21 0 36 -14.5t15 -35.5q0 -20 -15 -34.5t-36 -14.5q-20 0 -34.5 14.5t-14.5 34.5q0 21 14.5 35.5z" />
    <glyph glyph-name="Eogonek" unicode="&#x118;" horiz-adv-x="506" 
d="M164 631v-241h268v-70h-268v-246h298v-74h-389v705h389v-74h-298zM446 37v-49h-54q-32 0 -51 -14t-19 -39t19 -40t51 -15h96v-53h-104q-56 0 -91.5 27.5t-35.5 77.5q0 49 34 77t86 28h69z" />
    <glyph glyph-name="eogonek" unicode="&#x119;" horiz-adv-x="624" 
d="M574 255h-439q3 -94 54 -141t123 -47q66 0 110.5 33.5t54.5 89.5h97q-14 -75 -69 -127t-138 -65q-12 -2 -17.5 -8t-5.5 -17q0 -21 19.5 -34.5t54.5 -13.5h89v-53h-100q-57 0 -92.5 27t-35.5 77v21q-69 7 -121.5 42t-82 95.5t-29.5 139.5q0 86 34.5 150t95.5 98t140 34
q80 0 139.5 -34t91 -91t31.5 -126q0 -29 -4 -50zM466 401q-23 41 -63 61t-87 20q-75 0 -126 -46.5t-55 -136.5h351q3 61 -20 102z" />
    <glyph glyph-name="Ecaron" unicode="&#x11a;" horiz-adv-x="506" 
d="M164 631v-241h268v-70h-268v-246h298v-74h-389v705h389v-74h-298zM406 848l-138 -83l-139 83v64l139 -84l138 84v-64z" />
    <glyph glyph-name="ecaron" unicode="&#x11b;" horiz-adv-x="624" 
d="M574 255h-439q3 -94 53.5 -141t123.5 -47q66 0 110.5 33.5t54.5 89.5h97q-10 -57 -44.5 -102t-89.5 -70t-124 -25q-79 0 -140 34t-95.5 97.5t-34.5 149.5t34.5 150t95.5 98t140 34q80 0 139.5 -34t91 -91t31.5 -126q0 -29 -4 -50zM466 401q-23 41 -63 61t-87 20
q-75 0 -126 -46.5t-55 -136.5h351q3 61 -20 102zM451 691l-138 -83l-139 83v64l139 -84l138 84v-64z" />
    <glyph glyph-name="Gbreve" unicode="&#x11e;" horiz-adv-x="778" 
d="M599.5 651q83.5 -61 112.5 -166h-96q-25 64 -83.5 103t-138.5 39q-72 0 -129 -33.5t-89.5 -95.5t-32.5 -146q0 -86 33 -148.5t91.5 -96t134.5 -33.5q65 0 119 28t88.5 81.5t41.5 125.5h-277v68h354v-84q-9 -84 -52 -152t-116 -108t-166 -40q-102 0 -180 45.5t-121.5 127
t-43.5 186.5t43.5 186.5t121.5 127.5t179 46q123 0 206.5 -61zM284 806q-38 39 -38 100v9h50q0 -39 23 -59.5t70 -20.5t70.5 20.5t23.5 59.5h49v-9q0 -61 -38 -100t-105 -39t-105 39z" />
    <glyph glyph-name="gbreve" unicode="&#x11f;" horiz-adv-x="674" 
d="M433.5 516q55.5 -40 77.5 -107v140h91v-558q0 -76 -32 -135t-90 -92t-135 -33q-111 0 -181 53.5t-89 144.5h90q16 -55 60.5 -86.5t114.5 -31.5q74 0 122.5 47.5t48.5 132.5v149q-22 -67 -77.5 -107t-135.5 -40q-73 0 -130 34t-89.5 97.5t-32.5 149.5t32.5 150t89.5 98
t130 34q80 0 135.5 -40zM189.5 421.5q-50.5 -53.5 -50.5 -147.5t50.5 -147.5t134.5 -53.5q54 0 96.5 25t66.5 70.5t24 105.5t-24 106t-66.5 70.5t-96.5 24.5q-84 0 -134.5 -53.5zM219 649q-38 39 -38 100v9h50q0 -39 23 -59.5t70 -20.5t70.5 20.5t23.5 59.5h49v-9
q0 -61 -38 -100t-105 -39t-105 39z" />
    <glyph glyph-name="Gdotaccent" unicode="&#x120;" horiz-adv-x="778" 
d="M599.5 651q83.5 -61 112.5 -166h-96q-25 64 -83.5 103t-138.5 39q-72 0 -129 -33.5t-89.5 -95.5t-32.5 -146q0 -86 33 -148.5t91.5 -96t134.5 -33.5q65 0 119 28t88.5 81.5t41.5 125.5h-277v68h354v-84q-9 -84 -52 -152t-116 -108t-166 -40q-102 0 -180 45.5t-121.5 127
t-43.5 186.5t43.5 186.5t121.5 127.5t179 46q123 0 206.5 -61zM353.5 866.5q14.5 14.5 34.5 14.5q21 0 36 -14.5t15 -35.5q0 -20 -15 -34.5t-36 -14.5q-20 0 -34.5 14.5t-14.5 34.5q0 21 14.5 35.5z" />
    <glyph glyph-name="gdotaccent" unicode="&#x121;" horiz-adv-x="674" 
d="M433.5 516q55.5 -40 77.5 -107v140h91v-558q0 -76 -32 -135t-90 -92t-135 -33q-111 0 -181 53.5t-89 144.5h90q16 -55 60.5 -86.5t114.5 -31.5q74 0 122.5 47.5t48.5 132.5v149q-22 -67 -77.5 -107t-135.5 -40q-73 0 -130 34t-89.5 97.5t-32.5 149.5t32.5 150t89.5 98
t130 34q80 0 135.5 -40zM189.5 421.5q-50.5 -53.5 -50.5 -147.5t50.5 -147.5t134.5 -53.5q54 0 96.5 25t66.5 70.5t24 105.5t-24 106t-66.5 70.5t-96.5 24.5q-84 0 -134.5 -53.5zM288.5 709.5q14.5 14.5 34.5 14.5q21 0 36 -14.5t15 -35.5q0 -20 -15 -34.5t-36 -14.5
q-20 0 -34.5 14.5t-14.5 34.5q0 21 14.5 35.5z" />
    <glyph glyph-name="uni0122" unicode="&#x122;" horiz-adv-x="779" 
d="M599.5 651q83.5 -61 112.5 -166h-96q-25 64 -83.5 103t-138.5 39q-72 0 -129 -33.5t-89.5 -95.5t-32.5 -146q0 -86 33 -148.5t91.5 -96t134.5 -33.5q65 0 119 28t88.5 81.5t41.5 125.5h-277v68h354v-84q-9 -84 -52 -152t-116 -108t-166 -40q-102 0 -180 45.5t-121.5 127
t-43.5 186.5t43.5 186.5t121.5 127.5t179 46q123 0 206.5 -61zM448 -118q0 -59 -26 -88.5t-75 -29.5v39q48 0 48 61v9h-46v77h88q11 -36 11 -68z" />
    <glyph glyph-name="uni0123" unicode="&#x123;" horiz-adv-x="674" 
d="M278 688q0 55 26 83.5t76 28.5v-40q-26 0 -37.5 -14t-11.5 -42v-22h50v-87h-91q-12 48 -12 93zM433.5 516q55.5 -40 77.5 -107v140h91v-558q0 -76 -32 -135t-90 -92t-135 -33q-111 0 -181 53.5t-89 144.5h90q16 -55 60.5 -86.5t114.5 -31.5q74 0 122.5 47.5t48.5 132.5
v149q-22 -67 -77.5 -107t-135.5 -40q-73 0 -130 34t-89.5 97.5t-32.5 149.5t32.5 150t89.5 98t130 34q80 0 135.5 -40zM189.5 421.5q-50.5 -53.5 -50.5 -147.5t50.5 -147.5t134.5 -53.5q54 0 96.5 25t66.5 70.5t24 105.5t-24 106t-66.5 70.5t-96.5 24.5q-84 0 -134.5 -53.5z
" />
    <glyph glyph-name="Itilde" unicode="&#x128;" horiz-adv-x="237" 
d="M164 705v-705h-91v705h91zM93 862q15 -7 33 -20q18 -12 28.5 -17t24.5 -5q18 0 29.5 12t14.5 35h51q-7 -50 -32.5 -77t-64.5 -27q-21 0 -36.5 7t-34.5 20q-15 11 -26 16t-24 5q-37 0 -43 -47h-50q8 53 32.5 79t63.5 26q19 0 34 -7z" />
    <glyph glyph-name="itilde" unicode="&#x129;" horiz-adv-x="255" 
d="M173 549v-549h-92v549h92zM102 705q15 -7 33 -20q18 -12 28.5 -17t24.5 -5q18 0 29.5 12t14.5 35h51q-7 -50 -32.5 -77t-64.5 -27q-21 0 -36.5 7t-34.5 20q-15 11 -26 16t-24 5q-37 0 -43 -47h-50q8 53 32.5 79t63.5 26q19 0 34 -7z" />
    <glyph glyph-name="Imacron" unicode="&#x12a;" horiz-adv-x="237" 
d="M164 705v-705h-91v705h91zM295 867v-64h-353v64h353z" />
    <glyph glyph-name="imacron" unicode="&#x12b;" horiz-adv-x="255" 
d="M173 549v-549h-92v549h92zM304 710v-64h-353v64h353z" />
    <glyph glyph-name="uni012C" unicode="&#x12c;" horiz-adv-x="237" 
d="M164 705v-705h-91v705h91zM13 806q-38 39 -38 100v9h50q0 -39 23 -59.5t70 -20.5t70.5 20.5t23.5 59.5h49v-9q0 -61 -38 -100t-105 -39t-105 39z" />
    <glyph glyph-name="uni012D" unicode="&#x12d;" horiz-adv-x="255" 
d="M173 549v-549h-92v549h92zM22 649q-38 39 -38 100v9h50q0 -39 23 -59.5t70 -20.5t70.5 20.5t23.5 59.5h49v-9q0 -61 -38 -100t-105 -39t-105 39z" />
    <glyph glyph-name="Iogonek" unicode="&#x12e;" horiz-adv-x="237" 
d="M164 705v-705h-91v705h91zM164 11v-49h-54q-32 0 -51 -14t-19 -39t19 -40t51 -15h96v-53h-104q-56 0 -91.5 27.5t-35.5 77.5q0 49 34 77t86 28h69z" />
    <glyph glyph-name="iogonek" unicode="&#x12f;" horiz-adv-x="237" 
d="M74 750.5q17 15.5 45 15.5t45 -15.5t17 -40.5t-17 -40.5t-45 -15.5t-45 15.5t-17 40.5t17 40.5zM164 549v-549h-91v549h91zM164 11v-49h-54q-32 0 -51 -14t-19 -39t19 -40t51 -15h96v-53h-104q-56 0 -91.5 27.5t-35.5 77.5q0 49 34 77t86 28h69z" />
    <glyph glyph-name="Idotaccent" unicode="&#x130;" horiz-adv-x="237" 
d="M164 705v-705h-91v705h91zM83.5 866.5q14.5 14.5 34.5 14.5q21 0 36 -14.5t15 -35.5q0 -20 -15 -34.5t-36 -14.5q-20 0 -34.5 14.5t-14.5 34.5q0 21 14.5 35.5z" />
    <glyph glyph-name="dotlessi" unicode="&#x131;" horiz-adv-x="255" 
d="M173 549v-549h-92v549h92z" />
    <glyph glyph-name="uni0136" unicode="&#x136;" horiz-adv-x="602" 
d="M248 356l322 -356h-112l-294 329v-329h-91v705h91v-327l295 327h111zM341 -50q11 -32 11 -68q0 -59 -26 -88.5t-74 -29.5v39q47 0 47 61v9h-46v77h88z" />
    <glyph glyph-name="uni0137" unicode="&#x137;" horiz-adv-x="495" 
d="M488 0h-114l-210 247v-247h-91v740h91v-430l207 239h111l-246 -273zM295 -50q11 -36 11 -68q0 -59 -26 -88.5t-75 -29.5v39q48 0 48 61v9h-46v77h88z" />
    <glyph glyph-name="Lacute" unicode="&#x139;" horiz-adv-x="434" 
d="M164 71h250v-71h-341v705h91v-634zM317 866l-213 -117v65l213 126v-74z" />
    <glyph glyph-name="lacute" unicode="&#x13a;" horiz-adv-x="237" 
d="M164 740v-740h-91v740h91zM285 891l-213 -117v65l213 126v-74z" />
    <glyph glyph-name="uni013B" unicode="&#x13b;" horiz-adv-x="436" 
d="M164 71h250v-71h-341v705h91v-634zM307 -118q0 -59 -26 -88.5t-75 -29.5v39q48 0 48 61v9h-46v77h88q11 -36 11 -68z" />
    <glyph glyph-name="uni013C" unicode="&#x13c;" horiz-adv-x="237" 
d="M164 740v-740h-91v740h91zM173 -118q0 -59 -26 -88.5t-75 -29.5v39q48 0 48 61v9h-46v77h88q11 -36 11 -68z" />
    <glyph glyph-name="Lcaron" unicode="&#x13d;" horiz-adv-x="460" 
d="M164 71h250v-71h-341v705h91v-634zM384 613q0 -56 -26 -84.5t-76 -28.5v41q26 0 37.5 13.5t11.5 41.5v23h-50v86h91q12 -52 12 -92z" />
    <glyph glyph-name="lcaron" unicode="&#x13e;" horiz-adv-x="306" 
d="M164 740v-740h-91v740h91zM323 648q0 -56 -26 -84.5t-76 -28.5v41q26 0 37.5 13.5t11.5 41.5v23h-50v86h91q12 -47 12 -92z" />
    <glyph glyph-name="Ldot" unicode="&#x13f;" horiz-adv-x="434" 
d="M164 71h250v-71h-341v705h91v-634zM329.5 387.5q14.5 14.5 34.5 14.5q21 0 36 -14.5t15 -35.5q0 -20 -15 -34.5t-36 -14.5q-20 0 -34.5 14.5t-14.5 34.5q0 21 14.5 35.5z" />
    <glyph glyph-name="ldot" unicode="&#x140;" horiz-adv-x="262" 
d="M164 740v-740h-91v740h91zM214.5 405.5q14.5 14.5 34.5 14.5q21 0 36 -14.5t15 -35.5q0 -20 -15 -34.5t-36 -14.5q-20 0 -34.5 14.5t-14.5 34.5q0 21 14.5 35.5z" />
    <glyph glyph-name="Lslash" unicode="&#x141;" horiz-adv-x="453" 
d="M433 71v-71h-342v312l-81 -32v91l81 32v302h92v-267l130 51v-91l-130 -51v-276h250z" />
    <glyph glyph-name="lslash" unicode="&#x142;" horiz-adv-x="268" 
d="M258 455l-78 -33v-422h-92v384l-78 -33v89l78 33v267h92v-229l78 33v-89z" />
    <glyph glyph-name="Nacute" unicode="&#x143;" horiz-adv-x="694" 
d="M621 0h-91l-366 557v-557h-91v705h91l366 -558v558h91v-705zM511 866l-213 -117v65l213 126v-74z" />
    <glyph glyph-name="nacute" unicode="&#x144;" horiz-adv-x="643" 
d="M517 496.5q59 -61.5 59 -177.5v-319h-91v311q0 82 -42 126t-114 44q-75 0 -120 -48.5t-45 -141.5v-291h-91v549h91v-130q21 67 74.5 103t123.5 36q96 0 155 -61.5zM488 709l-213 -117v65l213 126v-74z" />
    <glyph glyph-name="uni0145" unicode="&#x145;" horiz-adv-x="712" 
d="M621 0h-91l-366 557v-557h-91v705h91l366 -558v558h91v-705zM409 -118q0 -59 -26 -88.5t-75 -29.5v39q48 0 48 61v9h-46v77h88q11 -36 11 -68z" />
    <glyph glyph-name="uni0146" unicode="&#x146;" horiz-adv-x="643" 
d="M517 496.5q59 -61.5 59 -177.5v-319h-91v311q0 82 -42 126t-114 44q-75 0 -120 -48.5t-45 -141.5v-291h-91v549h91v-130q21 67 74.5 103t123.5 36q96 0 155 -61.5zM377 -50q11 -36 11 -68q0 -59 -26 -88.5t-75 -29.5v39q48 0 48 61v9h-46v77h88z" />
    <glyph glyph-name="Ncaron" unicode="&#x147;" horiz-adv-x="694" 
d="M621 0h-91l-366 557v-557h-91v705h91l366 -558v558h91v-705zM485 848l-138 -83l-139 83v64l139 -84l138 84v-64z" />
    <glyph glyph-name="ncaron" unicode="&#x148;" horiz-adv-x="643" 
d="M517 496.5q59 -61.5 59 -177.5v-319h-91v311q0 82 -42 126t-114 44q-75 0 -120 -48.5t-45 -141.5v-291h-91v549h91v-130q21 67 74.5 103t123.5 36q96 0 155 -61.5zM462 691l-138 -83l-139 83v64l139 -84l138 84v-64z" />
    <glyph glyph-name="Omacron" unicode="&#x14c;" horiz-adv-x="791" 
d="M572.5 668q78.5 -46 123.5 -128.5t45 -186.5t-45 -186.5t-123.5 -128.5t-176.5 -46t-177.5 46t-124.5 128.5t-45 186.5t45 186.5t124.5 128.5t177.5 46t176.5 -46zM265.5 595.5q-57.5 -33.5 -90 -96t-32.5 -146.5q0 -83 32.5 -146t90 -96.5t130.5 -33.5q72 0 129.5 34
t90 96.5t32.5 145.5q0 84 -32.5 146.5t-90 96t-129.5 33.5q-73 0 -130.5 -33.5zM572 867v-64h-353v64h353z" />
    <glyph glyph-name="omacron" unicode="&#x14d;" horiz-adv-x="643" 
d="M463.5 522q62.5 -34 98 -98t35.5 -150t-35.5 -149.5t-98 -97.5t-141.5 -34t-141.5 34t-98.5 97.5t-36 149.5t36 150t98.5 98t141.5 34t141.5 -34zM231.5 454q-41.5 -22 -67 -67.5t-25.5 -112.5q0 -66 25.5 -111.5t67 -67.5t90.5 -22t90.5 22t67 67.5t25.5 111.5
q0 67 -25.5 112.5t-67 67.5t-90.5 22t-90.5 -22zM498 710v-64h-353v64h353z" />
    <glyph glyph-name="uni014E" unicode="&#x14e;" horiz-adv-x="791" 
d="M572.5 668q78.5 -46 123.5 -128.5t45 -186.5t-45 -186.5t-123.5 -128.5t-176.5 -46t-177.5 46t-124.5 128.5t-45 186.5t45 186.5t124.5 128.5t177.5 46t176.5 -46zM265.5 595.5q-57.5 -33.5 -90 -96t-32.5 -146.5q0 -83 32.5 -146t90 -96.5t130.5 -33.5q72 0 129.5 34
t90 96.5t32.5 145.5q0 84 -32.5 146.5t-90 96t-129.5 33.5q-73 0 -130.5 -33.5zM290 806q-38 39 -38 100v9h50q0 -39 23 -59.5t70 -20.5t70.5 20.5t23.5 59.5h49v-9q0 -61 -38 -100t-105 -39t-105 39z" />
    <glyph glyph-name="uni014F" unicode="&#x14f;" horiz-adv-x="643" 
d="M463.5 522q62.5 -34 98 -98t35.5 -150t-35.5 -149.5t-98 -97.5t-141.5 -34t-141.5 34t-98.5 97.5t-36 149.5t36 150t98.5 98t141.5 34t141.5 -34zM231.5 454q-41.5 -22 -67 -67.5t-25.5 -112.5q0 -66 25.5 -111.5t67 -67.5t90.5 -22t90.5 22t67 67.5t25.5 111.5
q0 67 -25.5 112.5t-67 67.5t-90.5 22t-90.5 -22zM216 649q-38 39 -38 100v9h50q0 -39 23 -59.5t70 -20.5t70.5 20.5t23.5 59.5h49v-9q0 -61 -38 -100t-105 -39t-105 39z" />
    <glyph glyph-name="Ohungarumlaut" unicode="&#x150;" horiz-adv-x="791" 
d="M572.5 668q78.5 -46 123.5 -128.5t45 -186.5t-45 -186.5t-123.5 -128.5t-176.5 -46t-177.5 46t-124.5 128.5t-45 186.5t45 186.5t124.5 128.5t177.5 46t176.5 -46zM265.5 595.5q-57.5 -33.5 -90 -96t-32.5 -146.5q0 -83 32.5 -146t90 -96.5t130.5 -33.5q72 0 129.5 34
t90 96.5t32.5 145.5q0 84 -32.5 146.5t-90 96t-129.5 33.5q-73 0 -130.5 -33.5zM343 758h-60l67 154h75zM494 758h-60l79 154h74z" />
    <glyph glyph-name="ohungarumlaut" unicode="&#x151;" horiz-adv-x="643" 
d="M463.5 522q62.5 -34 98 -98t35.5 -150t-35.5 -149.5t-98 -97.5t-141.5 -34t-141.5 34t-98.5 97.5t-36 149.5t36 150t98.5 98t141.5 34t141.5 -34zM231.5 454q-41.5 -22 -67 -67.5t-25.5 -112.5q0 -66 25.5 -111.5t67 -67.5t90.5 -22t90.5 22t67 67.5t25.5 111.5
q0 67 -25.5 112.5t-67 67.5t-90.5 22t-90.5 -22zM273 601h-60l67 154h75zM424 601h-60l79 154h74z" />
    <glyph glyph-name="OE" unicode="&#x152;" horiz-adv-x="1086" 
d="M744 390h267v-70h-267v-246h297v-74h-389v168q-27 -81 -98.5 -128.5t-163.5 -48.5q-98 0 -176 46t-121.5 128t-43.5 187t43.5 187.5t121.5 128.5t176 46q91 0 163 -48.5t99 -129.5v169h389v-74h-297v-241zM525.5 109q57.5 34 90 96.5t32.5 146.5t-32.5 147t-90 96.5
t-129.5 33.5q-73 0 -130.5 -33.5t-90 -96.5t-32.5 -147t32.5 -146.5t90 -96.5t130.5 -34q72 0 129.5 34z" />
    <glyph glyph-name="oe" unicode="&#x153;" horiz-adv-x="1095" 
d="M1036 255h-439q3 -94 53.5 -141t123.5 -47q65 0 109.5 33.5t55.5 89.5h97q-16 -87 -85.5 -142t-172.5 -55q-80 0 -139.5 37.5t-87.5 106.5q-27 -68 -88 -106t-141 -38q-79 0 -141.5 34t-98.5 97.5t-36 149.5t36 150t98.5 98t141.5 34t140 -38t89 -106q28 68 87.5 106
t139.5 38t139.5 -34t91 -91t31.5 -126q0 -29 -4 -50zM928 401q-23 41 -63 61t-87 20q-75 0 -126 -46.5t-55 -136.5h351q3 61 -20 102zM412.5 95q41.5 22 67 67.5t25.5 111.5q0 67 -25.5 112.5t-67 67.5t-90.5 22t-90.5 -22t-67 -67.5t-25.5 -112.5q0 -66 25.5 -111.5
t67 -67.5t90.5 -22t90.5 22z" />
    <glyph glyph-name="Racute" unicode="&#x154;" horiz-adv-x="583" 
d="M447 0l-184 288h-99v-288h-91v705h232q120 0 180 -57.5t60 -152.5q0 -86 -48 -138.5t-139 -65.5l192 -291h-103zM164 354h133q155 0 155 136t-155 136h-133v-272zM476 866l-213 -117v65l213 126v-74z" />
    <glyph glyph-name="racute" unicode="&#x155;" horiz-adv-x="384" 
d="M243 526.5q52 31.5 124 31.5v-99h-28q-77 0 -126 -39.5t-49 -130.5v-289h-91v549h91v-111q27 57 79 88.5zM384 709l-213 -117v65l213 126v-74z" />
    <glyph glyph-name="uni0156" unicode="&#x156;" horiz-adv-x="594" 
d="M550 0h-103l-184 288h-99v-288h-91v705h232q120 0 180 -57.5t60 -152.5q0 -86 -48 -138.5t-139 -65.5zM164 354h133q155 0 155 136t-155 136h-133v-272zM337 -50q11 -36 11 -68q0 -59 -26 -88.5t-75 -29.5v39q47 0 47 61v9h-45v77h88z" />
    <glyph glyph-name="uni0157" unicode="&#x157;" horiz-adv-x="384" 
d="M243 526.5q52 31.5 124 31.5v-99h-28q-77 0 -126 -39.5t-49 -130.5v-289h-91v549h91v-111q27 57 79 88.5zM160 -50q10 -33 10 -68q0 -59 -26 -88.5t-74 -29.5v39q47 0 47 61v9h-45v77h88z" />
    <glyph glyph-name="Rcaron" unicode="&#x158;" horiz-adv-x="583" 
d="M447 0l-184 288h-99v-288h-91v705h232q120 0 180 -57.5t60 -152.5q0 -86 -48 -138.5t-139 -65.5l192 -291h-103zM164 354h133q155 0 155 136t-155 136h-133v-272zM450 848l-138 -83l-139 83v64l139 -84l138 84v-64z" />
    <glyph glyph-name="rcaron" unicode="&#x159;" horiz-adv-x="384" 
d="M243 526.5q52 31.5 124 31.5v-99h-28q-77 0 -126 -39.5t-49 -130.5v-289h-91v549h91v-111q27 57 79 88.5zM358 691l-138 -83l-139 83v64l139 -84l138 84v-64z" />
    <glyph glyph-name="Sacute" unicode="&#x15a;" horiz-adv-x="568" 
d="M495 90q-24 -43 -73 -70t-121 -27q-70 0 -124.5 25.5t-87 70t-37.5 101.5h97q3 -30 20.5 -58.5t50 -47t78.5 -18.5q60 0 92 32t32 82q0 43 -22.5 70t-55.5 42.5t-90 33.5q-67 22 -107.5 41.5t-69 58.5t-28.5 103q0 55 26.5 97t76 65t116.5 23q104 0 165 -50.5t71 -128.5
h-98q-8 42 -43 74t-95 32q-55 0 -88 -28.5t-33 -80.5q0 -41 21.5 -66.5t53.5 -40t88 -32.5q68 -22 109.5 -42t70.5 -60.5t29 -107.5q0 -50 -24 -93zM449 866l-213 -117v65l213 126v-74z" />
    <glyph glyph-name="sacute" unicode="&#x15b;" horiz-adv-x="517" 
d="M394.5 507.5q56.5 -48.5 68.5 -130.5h-87q-6 49 -40.5 80.5t-92.5 31.5q-49 0 -76.5 -23.5t-27.5 -63.5q0 -30 18.5 -48.5t46 -28t75.5 -20.5q61 -14 98.5 -28.5t64 -46.5t26.5 -86q0 -67 -50.5 -109t-134.5 -42q-98 0 -160 47t-73 131h88q5 -50 43.5 -81t101.5 -31
q47 0 73.5 24t26.5 63q0 32 -19 51t-47 29t-77 21q-61 14 -97.5 28t-62 44.5t-25.5 82.5q0 69 51 111.5t139 42.5q93 0 149.5 -48.5zM424 709l-213 -117v65l213 126v-74z" />
    <glyph glyph-name="uni015E" unicode="&#x15e;" horiz-adv-x="568" 
d="M495 90q-24 -43 -73 -70t-121 -27q-70 0 -124.5 25.5t-87 70t-37.5 101.5h97q3 -30 20.5 -58.5t50 -47t78.5 -18.5q60 0 92 32t32 82q0 43 -22.5 70t-55.5 42.5t-90 33.5q-67 22 -107.5 41.5t-69 58.5t-28.5 103q0 55 26.5 97t76 65t116.5 23q104 0 165 -50.5t71 -128.5
h-98q-8 42 -43 74t-95 32q-55 0 -88 -28.5t-33 -80.5q0 -41 21.5 -66.5t53.5 -40t88 -32.5q68 -22 109.5 -42t70.5 -60.5t29 -107.5q0 -50 -24 -93zM410.5 -88.5q35.5 -23.5 35.5 -72.5q0 -48 -34 -73.5t-88 -25.5h-102v53h92q67 0 67 48q0 20 -16 32.5t-51 12.5h-54v121h59
v-74q56 2 91.5 -21.5z" />
    <glyph glyph-name="uni015F" unicode="&#x15f;" horiz-adv-x="517" 
d="M394.5 507.5q56.5 -48.5 68.5 -130.5h-87q-6 49 -40.5 80.5t-92.5 31.5q-49 0 -76.5 -23.5t-27.5 -63.5q0 -30 18.5 -48.5t46 -28t75.5 -20.5q61 -14 98.5 -28.5t64 -46.5t26.5 -86q0 -67 -50.5 -109t-134.5 -42q-98 0 -160 47t-73 131h88q5 -50 43.5 -81t101.5 -31
q47 0 73.5 24t26.5 63q0 32 -19 51t-47 29t-77 21q-61 14 -97.5 28t-62 44.5t-25.5 82.5q0 69 51 111.5t139 42.5q93 0 149.5 -48.5zM382.5 -88.5q35.5 -23.5 35.5 -72.5q0 -48 -34 -73.5t-88 -25.5h-102v53h92q67 0 67 48q0 20 -16 32.5t-51 12.5h-54v121h59v-74
q56 2 91.5 -21.5z" />
    <glyph glyph-name="Scaron" unicode="&#x160;" horiz-adv-x="568" 
d="M495 90q-24 -43 -73 -70t-121 -27q-70 0 -124.5 25.5t-87 70t-37.5 101.5h97q3 -30 20.5 -58.5t50 -47t78.5 -18.5q60 0 92 32t32 82q0 43 -22.5 70t-55.5 42.5t-90 33.5q-67 22 -107.5 41.5t-69 58.5t-28.5 103q0 55 26.5 97t76 65t116.5 23q104 0 165 -50.5t71 -128.5
h-98q-8 42 -43 74t-95 32q-55 0 -88 -28.5t-33 -80.5q0 -41 21.5 -66.5t53.5 -40t88 -32.5q68 -22 109.5 -42t70.5 -60.5t29 -107.5q0 -50 -24 -93zM423 848l-138 -83l-139 83v64l139 -84l138 84v-64z" />
    <glyph glyph-name="scaron" unicode="&#x161;" horiz-adv-x="517" 
d="M394.5 507.5q56.5 -48.5 68.5 -130.5h-87q-6 49 -40.5 80.5t-92.5 31.5q-49 0 -76.5 -23.5t-27.5 -63.5q0 -30 18.5 -48.5t46 -28t75.5 -20.5q61 -14 98.5 -28.5t64 -46.5t26.5 -86q0 -67 -50.5 -109t-134.5 -42q-98 0 -160 47t-73 131h88q5 -50 43.5 -81t101.5 -31
q47 0 73.5 24t26.5 63q0 32 -19 51t-47 29t-77 21q-61 14 -97.5 28t-62 44.5t-25.5 82.5q0 69 51 111.5t139 42.5q93 0 149.5 -48.5zM397 691l-138 -83l-139 83v64l139 -84l138 84v-64z" />
    <glyph glyph-name="uni0162" unicode="&#x162;" horiz-adv-x="522" 
d="M306 631v-627q100 -14 100 -89q0 -48 -34 -73.5t-88 -25.5h-100v53h92q35 0 50 12.5t15 35.5q0 45 -65 45h-61v669h-199v74h489v-74h-199z" />
    <glyph glyph-name="uni0163" unicode="&#x163;" horiz-adv-x="373" 
d="M346.5 -88.5q35.5 -23.5 35.5 -72.5q0 -48 -34 -73.5t-88 -25.5h-102v53h92q67 0 67 48q0 20 -16 32.5t-51 12.5h-54v123q-48 14 -72 53.5t-24 111.5v296h-82v79h82v137h92v-137h142v-79h-142v-298q0 -53 19.5 -72.5t67.5 -19.5h56v-80h-68h-12v-67q56 2 91.5 -21.5z" />
    <glyph glyph-name="Tcaron" unicode="&#x164;" horiz-adv-x="522" 
d="M505 705v-74h-199v-631h-91v631h-199v74h489zM400 848l-138 -83l-139 83v64l139 -84l138 84v-64z" />
    <glyph glyph-name="tcaron" unicode="&#x165;" horiz-adv-x="373" 
d="M300 707h-50v86h92q12 -52 12 -88q0 -106 -102 -106v41q25 0 36.5 10.5t11.5 31.5v25zM211.5 99.5q19.5 -19.5 67.5 -19.5h56v-80h-68q-84 0 -125.5 40t-41.5 134v296h-82v79h82v137h92v-137h142v-79h-142v-298q0 -53 19.5 -72.5z" />
    <glyph glyph-name="Utilde" unicode="&#x168;" horiz-adv-x="661" 
d="M159 705v-423q0 -104 46 -153.5t127 -49.5q80 0 125 50t45 153v423h91v-423q0 -144 -71.5 -216.5t-191.5 -72.5q-119 0 -190.5 72.5t-71.5 216.5v423h91zM305 862q15 -7 33 -20q18 -12 28.5 -17t24.5 -5q18 0 29.5 12t14.5 35h51q-7 -50 -32.5 -77t-64.5 -27
q-21 0 -36.5 7t-34.5 20q-15 11 -26 16t-24 5q-37 0 -43 -47h-50q8 53 32.5 79t63.5 26q19 0 34 -7z" />
    <glyph glyph-name="utilde" unicode="&#x169;" horiz-adv-x="634" 
d="M561 549v-549h-91v129q-21 -67 -74.5 -102.5t-124.5 -35.5q-95 0 -154 61.5t-59 176.5v320h91v-311q0 -82 42 -126.5t114 -44.5q75 0 120 48.5t45 141.5v292h91zM284 705q15 -7 33 -20q18 -12 28.5 -17t24.5 -5q18 0 29.5 12t14.5 35h51q-7 -50 -32.5 -77t-64.5 -27
q-21 0 -36.5 7t-34.5 20q-15 11 -26 16t-24 5q-37 0 -43 -47h-50q8 53 32.5 79t63.5 26q19 0 34 -7z" />
    <glyph glyph-name="Umacron" unicode="&#x16a;" horiz-adv-x="661" 
d="M159 705v-423q0 -104 46 -153.5t127 -49.5q80 0 125 50t45 153v423h91v-423q0 -144 -71.5 -216.5t-191.5 -72.5q-119 0 -190.5 72.5t-71.5 216.5v423h91zM507 867v-64h-353v64h353z" />
    <glyph glyph-name="umacron" unicode="&#x16b;" horiz-adv-x="634" 
d="M561 549v-549h-91v129q-21 -67 -74.5 -102.5t-124.5 -35.5q-95 0 -154 61.5t-59 176.5v320h91v-311q0 -82 42 -126.5t114 -44.5q75 0 120 48.5t45 141.5v292h91zM486 710v-64h-353v64h353z" />
    <glyph glyph-name="Ubreve" unicode="&#x16c;" horiz-adv-x="661" 
d="M159 705v-423q0 -104 46 -153.5t127 -49.5q80 0 125 50t45 153v423h91v-423q0 -144 -71.5 -216.5t-191.5 -72.5q-119 0 -190.5 72.5t-71.5 216.5v423h91zM225 806q-38 39 -38 100v9h50q0 -39 23 -59.5t70 -20.5t70.5 20.5t23.5 59.5h49v-9q0 -61 -38 -100t-105 -39
t-105 39z" />
    <glyph glyph-name="ubreve" unicode="&#x16d;" horiz-adv-x="634" 
d="M561 549v-549h-91v129q-21 -67 -74.5 -102.5t-124.5 -35.5q-95 0 -154 61.5t-59 176.5v320h91v-311q0 -82 42 -126.5t114 -44.5q75 0 120 48.5t45 141.5v292h91zM204 649q-38 39 -38 100v9h50q0 -39 23 -59.5t70 -20.5t70.5 20.5t23.5 59.5h49v-9q0 -61 -38 -100
t-105 -39t-105 39z" />
    <glyph glyph-name="Uring" unicode="&#x16e;" horiz-adv-x="661" 
d="M159 705v-423q0 -104 46 -153.5t127 -49.5q80 0 125 50t45 153v423h91v-423q0 -144 -71.5 -216.5t-191.5 -72.5q-119 0 -190.5 72.5t-71.5 216.5v423h91zM405 945.5q30 -28.5 30 -76.5t-30 -76.5t-75 -28.5q-44 0 -74.5 29t-30.5 76t30.5 76t74.5 29q45 0 75 -28.5z
M286 915q-17 -17 -17 -46t17 -46t44 -17t44.5 17t17.5 46t-17.5 46t-44.5 17t-44 -17z" />
    <glyph glyph-name="uring" unicode="&#x16f;" horiz-adv-x="634" 
d="M561 549v-549h-91v129q-21 -67 -74.5 -102.5t-124.5 -35.5q-95 0 -154 61.5t-59 176.5v320h91v-311q0 -82 42 -126.5t114 -44.5q75 0 120 48.5t45 141.5v292h91zM384 788.5q30 -28.5 30 -76.5t-30 -76.5t-75 -28.5q-44 0 -74.5 29t-30.5 76t30.5 76t74.5 29
q45 0 75 -28.5zM265 758q-17 -17 -17 -46t17 -46t44 -17t44.5 17t17.5 46t-17.5 46t-44.5 17t-44 -17z" />
    <glyph glyph-name="Uhungarumlaut" unicode="&#x170;" horiz-adv-x="661" 
d="M159 705v-423q0 -104 46 -153.5t127 -49.5q80 0 125 50t45 153v423h91v-423q0 -144 -71.5 -216.5t-191.5 -72.5q-119 0 -190.5 72.5t-71.5 216.5v423h91zM257 758h-60l67 154h75zM408 758h-60l79 154h74z" />
    <glyph glyph-name="uhungarumlaut" unicode="&#x171;" horiz-adv-x="634" 
d="M561 549v-549h-91v129q-21 -67 -74.5 -102.5t-124.5 -35.5q-95 0 -154 61.5t-59 176.5v320h91v-311q0 -82 42 -126.5t114 -44.5q75 0 120 48.5t45 141.5v292h91zM236 601h-60l67 154h75zM387 601h-60l79 154h74z" />
    <glyph glyph-name="Uogonek" unicode="&#x172;" horiz-adv-x="678" 
d="M291 -135.5q-34 28.5 -34 77.5q0 18 10 34t25 21q-96 16 -155.5 88.5t-59.5 196.5v423h91v-423q0 -103 45.5 -153t126.5 -50q171 0 171 203v423h91v-423q0 -129 -59.5 -199.5t-155.5 -83.5q-32 -4 -48 -18.5t-16 -38.5q0 -25 19 -39.5t52 -14.5h91v-52h-106
q-54 0 -88 28.5z" />
    <glyph glyph-name="uogonek" unicode="&#x173;" horiz-adv-x="634" 
d="M561 549v-549h-91v129q-21 -67 -74.5 -102.5t-124.5 -35.5q-95 0 -154 61.5t-59 176.5v320h91v-311q0 -82 42 -126.5t114 -44.5q75 0 120 48.5t45 141.5v292h91zM561 11v-49h-54q-32 0 -51 -14t-19 -39t19 -40t51 -15h96v-53h-104q-56 0 -91.5 27.5t-35.5 77.5
q0 49 34 77t86 28h69z" />
    <glyph glyph-name="Wcircumflex" unicode="&#x174;" horiz-adv-x="974" 
d="M940 705l-179 -705h-111l-163 576l-163 -576h-111l-180 705h101l135 -599l167 599h101l167 -597l136 597h100zM488 851l-139 -84v64l139 83l138 -83v-64z" />
    <glyph glyph-name="wcircumflex" unicode="&#x175;" horiz-adv-x="839" 
d="M827 549l-158 -549h-98l-151 447l-152 -447h-99l-156 549h92l117 -462l152 462h95l153 -461l118 461h87zM420 694l-139 -84v64l139 83l138 -83v-64z" />
    <glyph glyph-name="Ycircumflex" unicode="&#x176;" horiz-adv-x="593" 
d="M574 705l-231 -438v-267h-92v267l-232 438h106l173 -341l172 341h104zM297 851l-139 -84v64l139 83l138 -83v-64z" />
    <glyph glyph-name="ycircumflex" unicode="&#x177;" horiz-adv-x="565" 
d="M111 549l178 -432l165 432h101l-326 -809h-103l114 269l-231 540h102zM283 694l-139 -84v64l139 83l138 -83v-64z" />
    <glyph glyph-name="Ydieresis" unicode="&#x178;" horiz-adv-x="593" 
d="M574 705l-231 -438v-267h-92v267l-232 438h106l173 -341l172 341h104zM178.5 866.5q14.5 14.5 35.5 14.5t35.5 -14.5t14.5 -35.5q0 -20 -14.5 -34.5t-35.5 -14.5t-35.5 14.5t-14.5 34.5q0 21 14.5 35.5zM344.5 866.5q14.5 14.5 35.5 14.5t35.5 -14.5t14.5 -35.5
q0 -20 -14.5 -34.5t-35.5 -14.5t-35.5 14.5t-14.5 34.5q0 21 14.5 35.5z" />
    <glyph glyph-name="Zacute" unicode="&#x179;" horiz-adv-x="538" 
d="M142 75h355v-75h-457v72l349 558h-340v75h442v-72zM433 866l-213 -117v65l213 126v-74z" />
    <glyph glyph-name="zacute" unicode="&#x17a;" horiz-adv-x="446" 
d="M126 77h294v-77h-394v73l280 399h-272v77h376v-74zM388 709l-213 -117v65l213 126v-74z" />
    <glyph glyph-name="Zdotaccent" unicode="&#x17b;" horiz-adv-x="538" 
d="M142 75h355v-75h-457v72l349 558h-340v75h442v-72zM233.5 866.5q14.5 14.5 34.5 14.5q21 0 36 -14.5t15 -35.5q0 -20 -15 -34.5t-36 -14.5q-20 0 -34.5 14.5t-14.5 34.5q0 21 14.5 35.5z" />
    <glyph glyph-name="zdotaccent" unicode="&#x17c;" horiz-adv-x="446" 
d="M126 77h294v-77h-394v73l280 399h-272v77h376v-74zM187.5 709.5q14.5 14.5 34.5 14.5q21 0 36 -14.5t15 -35.5q0 -20 -15 -34.5t-36 -14.5q-20 0 -34.5 14.5t-14.5 34.5q0 21 14.5 35.5z" />
    <glyph glyph-name="Zcaron" unicode="&#x17d;" horiz-adv-x="538" 
d="M142 75h355v-75h-457v72l349 558h-340v75h442v-72zM407 848l-138 -83l-139 83v64l139 -84l138 84v-64z" />
    <glyph glyph-name="zcaron" unicode="&#x17e;" horiz-adv-x="446" 
d="M126 77h294v-77h-394v73l280 399h-272v77h376v-74zM362 691l-138 -83l-139 83v64l139 -84l138 84v-64z" />
    <glyph glyph-name="florin" unicode="&#x192;" horiz-adv-x="334" 
d="M258 666q-31 -22 -36 -71l-5 -46h122l-7 -78h-123l-56 -528q-8 -74 -48 -107.5t-115 -33.5h-31l7 79h31q31 0 46 13.5t19 48.5l56 528h-70l6 78h72l5 46q10 89 65.5 130.5t157.5 41.5l-7 -79q-58 0 -89 -22z" />
    <glyph glyph-name="uni01FC" unicode="&#x1fc;" horiz-adv-x="890" 
d="M551 631v-239h265v-71h-265v-247h295v-74h-386v160h-262l-91 -160h-101l400 705h440v-74h-295zM460 230v391l-222 -391h222zM630 866l-213 -117v65l213 126v-74z" />
    <glyph glyph-name="uni01FD" unicode="&#x1fd;" horiz-adv-x="1106" 
d="M1056 255h-452q4 -94 56 -141.5t128 -47.5q68 0 114.5 33t57.5 91h96q-15 -88 -79 -142.5t-161 -54.5q-79 0 -136 38t-78 109v-140h-91v140q-22 -67 -77.5 -107t-135.5 -40q-73 0 -130 34t-89.5 97.5t-32.5 149.5t32.5 150t89.5 98t130 34q80 0 135.5 -40t77.5 -107v140
h91v-141q20 71 77.5 109.5t136.5 38.5q76 0 131 -34t84 -91t29 -126q0 -29 -4 -50zM947.5 401q-24.5 41 -66.5 61t-91 20q-76 0 -129 -45.5t-57 -137.5h365q3 61 -21.5 102zM420.5 98q42.5 25 66.5 70.5t24 105.5t-24 106t-66.5 70.5t-96.5 24.5q-84 0 -134.5 -53.5
t-50.5 -147.5t50.5 -147.5t134.5 -53.5q54 0 96.5 25zM718 709l-213 -117v65l213 126v-74z" />
    <glyph glyph-name="uni0218" unicode="&#x218;" horiz-adv-x="589" 
d="M495 90q-24 -43 -73 -70t-121 -27q-70 0 -124.5 25.5t-87 70t-37.5 101.5h97q3 -30 20.5 -58.5t50 -47t78.5 -18.5q60 0 92 32t32 82q0 43 -22.5 70t-55.5 42.5t-90 33.5q-67 22 -107.5 41.5t-69 58.5t-28.5 103q0 55 26.5 97t76 65t116.5 23q104 0 165 -50.5t71 -128.5
h-98q-8 42 -43 74t-95 32q-55 0 -88 -28.5t-33 -80.5q0 -41 21.5 -66.5t53.5 -40t88 -32.5q68 -22 109.5 -42t70.5 -60.5t29 -107.5q0 -50 -24 -93zM364 -118q0 -59 -25.5 -88.5t-74.5 -29.5v39q47 0 47 61v9h-45v77h88q10 -33 10 -68z" />
    <glyph glyph-name="uni0219" unicode="&#x219;" horiz-adv-x="517" 
d="M394.5 507.5q56.5 -48.5 68.5 -130.5h-87q-6 49 -40.5 80.5t-92.5 31.5q-49 0 -76.5 -23.5t-27.5 -63.5q0 -30 18.5 -48.5t46 -28t75.5 -20.5q61 -14 98.5 -28.5t64 -46.5t26.5 -86q0 -67 -50.5 -109t-134.5 -42q-98 0 -160 47t-73 131h88q5 -50 43.5 -81t101.5 -31
q47 0 73.5 24t26.5 63q0 32 -19 51t-47 29t-77 21q-61 14 -97.5 28t-62 44.5t-25.5 82.5q0 69 51 111.5t139 42.5q93 0 149.5 -48.5zM325 -118q0 -59 -26 -88.5t-74 -29.5v39q47 0 47 61v9h-45v77h88q10 -33 10 -68z" />
    <glyph glyph-name="uni021A" unicode="&#x21a;" horiz-adv-x="522" 
d="M505 705v-74h-199v-631h-91v631h-199v74h489zM313 -118q0 -59 -26 -88.5t-74 -29.5v39q47 0 47 61v9h-45v77h88q10 -33 10 -68z" />
    <glyph glyph-name="uni021B" unicode="&#x21b;" horiz-adv-x="373" 
d="M335 80v-80h-68q-84 0 -125.5 40t-41.5 134v296h-82v79h82v137h92v-137h142v-79h-142v-298q0 -53 19.5 -72.5t67.5 -19.5h56zM255 -50q10 -33 10 -68q0 -59 -26 -88.5t-74 -29.5v39q47 0 47 61v9h-46v77h89z" />
    <glyph glyph-name="uni02BC" unicode="&#x2bc;" horiz-adv-x="178" 
d="M141 696q0 -56 -25.5 -84.5t-75.5 -28.5v41q26 0 37 13.5t11 41.5v23h-50v86h92q11 -48 11 -92z" />
    <glyph glyph-name="circumflex" unicode="&#x2c6;" horiz-adv-x="336" 
d="M168 694l-139 -84v64l139 83l138 -83v-64z" />
    <glyph glyph-name="caron" unicode="&#x2c7;" horiz-adv-x="336" 
d="M306 691l-138 -83l-139 83v64l139 -84l138 84v-64z" />
    <glyph glyph-name="uni02C9" unicode="&#x2c9;" horiz-adv-x="411" 
d="M382 710v-64h-353v64h353z" />
    <glyph glyph-name="breve" unicode="&#x2d8;" horiz-adv-x="344" 
d="M67 649q-38 39 -38 100v9h50q0 -39 23 -59.5t70 -20.5t70.5 20.5t23.5 59.5h49v-9q0 -61 -38 -100t-105 -39t-105 39z" />
    <glyph glyph-name="dotaccent" unicode="&#x2d9;" horiz-adv-x="167" 
d="M48.5 709.5q14.5 14.5 34.5 14.5q21 0 36 -14.5t15 -35.5q0 -20 -15 -34.5t-36 -14.5q-20 0 -34.5 14.5t-14.5 34.5q0 21 14.5 35.5z" />
    <glyph glyph-name="ring" unicode="&#x2da;" horiz-adv-x="268" 
d="M209 788.5q30 -28.5 30 -76.5t-30 -76.5t-75 -28.5q-44 0 -74.5 29t-30.5 76t30.5 76t74.5 29q45 0 75 -28.5zM90 758q-17 -17 -17 -46t17 -46t44 -17t44.5 17t17.5 46t-17.5 46t-44.5 17t-44 -17z" />
    <glyph glyph-name="ogonek" unicode="&#x2db;" horiz-adv-x="283" 
d="M215 -14v-49h-54q-32 0 -51 -14t-19 -39t19 -40t51 -15h96v-53h-104q-56 0 -91.5 27.5t-35.5 77.5q0 49 34 77t86 28h69z" />
    <glyph glyph-name="tilde" unicode="&#x2dc;" horiz-adv-x="363" 
d="M156 705q15 -7 33 -20q18 -12 28.5 -17t24.5 -5q18 0 29.5 12t14.5 35h51q-7 -50 -32.5 -77t-64.5 -27q-21 0 -36.5 7t-34.5 20q-15 11 -26 16t-24 5q-37 0 -43 -47h-50q8 53 32.5 79t63.5 26q19 0 34 -7z" />
    <glyph glyph-name="hungarumlaut" unicode="&#x2dd;" horiz-adv-x="363" 
d="M89 601h-60l67 154h75zM240 601h-60l79 154h74z" />
    <glyph glyph-name="pi" unicode="&#x3c0;" horiz-adv-x="716" 
d="M673 549v-71h-80v-478h-91v478h-286v-478h-91v478h-80v71h628z" />
    <glyph glyph-name="dvCandrabindu" unicode="&#x901;" horiz-adv-x="0" 
d="M-180.5 994q-12.5 12 -12.5 29q0 18 12.5 30t29.5 12q18 0 30 -12t12 -30q0 -17 -12 -29t-30 -12q-17 0 -29.5 12zM-262.5 841.5q-45.5 23.5 -68.5 63.5t-23 89h67q0 -46 35.5 -80.5t100.5 -34.5t100 34.5t35 80.5h68q0 -49 -23 -89t-68.5 -63.5t-111.5 -23.5
t-111.5 23.5z" />
    <glyph glyph-name="dvAnusvara" unicode="&#x902;" horiz-adv-x="0" 
d="M-187.5 851.5q-16.5 16.5 -16.5 39.5t16.5 39.5t40.5 16.5q23 0 39.5 -16.5t16.5 -39.5t-16.5 -39.5t-39.5 -16.5q-24 0 -40.5 16.5z" />
    <glyph glyph-name="dvVisarga" unicode="&#x903;" horiz-adv-x="232" 
d="M76 452.5q-16 16.5 -16 39.5t16 39.5t40 16.5t40 -16.5t16 -39.5t-16 -39.5t-40 -16.5t-40 16.5zM76 149q-16 16 -16 39q0 24 16 40t40 16t40 -16t16 -40q0 -23 -16 -39t-40 -16t-40 16z" />
    <glyph glyph-name="dvA" unicode="&#x905;" horiz-adv-x="828" 
d="M854 740v-70h-132v-670h-83v327l-159 1q18 -39 18 -83q0 -87 -55 -139.5t-147 -52.5q-64 0 -114.5 25.5t-79 71.5t-28.5 106h78q0 -57 38.5 -94t99.5 -37q60 0 96 35.5t36 92.5q0 43 -23 75h-3l-1 6q-37 46 -113 46h-40v68h40q61 0 95 33.5t34 78.5q0 55 -35 86.5
t-88 31.5q-55 0 -92.5 -31.5t-36.5 -82.5h-77q0 56 26.5 97.5t73 64.5t106.5 23q88 0 143 -48.5t55 -128.5q0 -58 -31 -99t-90 -56v-2q30 -5 52 -18h222v343h215z" />
    <glyph glyph-name="dvAA" unicode="&#x906;" horiz-adv-x="1115" 
d="M854 740v-70h-132v-670h-83v327l-159 1q18 -39 18 -83q0 -87 -55 -139.5t-147 -52.5q-64 0 -114.5 25.5t-79 71.5t-28.5 106h78q0 -57 38.5 -94t99.5 -37q60 0 96 35.5t36 92.5q0 43 -23 75h-3l-1 6q-37 46 -113 46h-40v68h40q61 0 95 33.5t34 78.5q0 55 -35 86.5
t-88 31.5q-55 0 -92.5 -31.5t-36.5 -82.5h-77q0 56 26.5 97.5t73 64.5t106.5 23q88 0 143 -48.5t55 -128.5q0 -58 -31 -99t-90 -56v-2q30 -5 52 -18h222v343h215zM932 670h-131v70h346v-70h-131v-670h-84v670z" />
    <glyph glyph-name="dvI" unicode="&#x907;" horiz-adv-x="580" 
d="M201 470q-35 -18 -35 -65q0 -43 30 -62.5t79 -19.5h44q87 0 146 -40.5t59 -130.5q0 -72 -47 -118.5t-132 -46.5q-71 0 -113.5 29.5t-57.5 62.5v-156h-79v256h75q5 -58 45 -93.5t108 -35.5q59 0 90.5 29.5t31.5 74.5q0 58 -40 83t-101 25q-35 0 -53 1q-71 2 -120 37.5
t-49 105.5q0 75 52.5 109.5t130.5 34.5h119v120h-421v70h654v-70h-152v-182h-177q-52 0 -87 -18z" />
    <glyph glyph-name="dvII" unicode="&#x908;" horiz-adv-x="580" 
d="M201 470q-35 -18 -35 -65q0 -43 30 -62.5t79 -19.5h44q87 0 146 -40.5t59 -130.5q0 -72 -47 -118.5t-132 -46.5q-71 0 -113.5 29.5t-57.5 62.5v-156h-79v256h75q5 -58 45 -93.5t108 -35.5q59 0 90.5 29.5t31.5 74.5q0 58 -40 83t-101 25q-35 0 -53 1q-71 2 -120 37.5
t-49 105.5q0 75 52.5 109.5t130.5 34.5h119v120h-421v70h654v-70h-152v-182h-177q-52 0 -87 -18zM385 814q0 88 40.5 140.5t126.5 52.5q77 0 119.5 -46.5t40.5 -122.5h-73q1 45 -22.5 72t-63.5 27q-90 0 -90 -122v-91h-78v90z" />
    <glyph glyph-name="dvU" unicode="&#x909;" horiz-adv-x="575" 
d="M449 463.5q-31 -41.5 -80 -49.5v-2q64 -13 103 -67.5t39 -126.5q0 -63 -26.5 -111.5t-76 -76t-117.5 -27.5q-69 0 -124 28.5t-85.5 79.5t-30.5 116h80q0 -42 20.5 -76t56 -53.5t79.5 -19.5q65 0 104.5 41t39.5 106q0 59 -37.5 103.5t-113.5 44.5h-46v74h36
q63 0 96.5 34.5t33.5 90.5v97h-426v71h628v-71h-122v-103q0 -61 -31 -102.5z" />
    <glyph glyph-name="dvUU" unicode="&#x90a;" horiz-adv-x="865" 
d="M449 463.5q-31 -41.5 -80 -49.5v-2h207q104 0 168 -48.5t64 -148.5q0 -92 -53.5 -139.5t-140.5 -47.5q-23 0 -47 3v64q12 -1 34 -1q57 0 92 30t35 94q0 66 -42 96.5t-109 30.5h-110q42 -54 42 -131q0 -61 -26 -109t-75.5 -75t-116.5 -27q-69 0 -124 28.5t-85.5 79.5
t-30.5 116h80q0 -42 20.5 -76t56 -53.5t79.5 -19.5q65 0 104.5 41t39.5 106q0 59 -37.5 103.5t-113.5 44.5h-46v74h36q63 0 96.5 34.5t33.5 90.5v98h-426v70h917v-70h-411v-104q0 -61 -31 -102.5z" />
    <glyph glyph-name="dvvR" unicode="&#x90b;" horiz-adv-x="1021" 
d="M576 670v-232h179q84 0 84 75v58h73v-353h-19q-56 0 -86.5 -30t-30.5 -76q0 -52 33 -77.5t85 -25.5q30 0 57 9v-67q-12 -4 -31.5 -6.5t-35.5 -2.5q-82 0 -135 42t-53 121q0 64 38.5 107.5t104.5 55.5v126q-40 -23 -96 -23h-167v-371h-78v276l-273 -276h-104v5l377 358
q-11 58 -54 94.5t-108 36.5q-81 0 -131 -50.5t-50 -135.5h-83q0 77 30 135t85 90t126 32q64 0 110.5 -25.5t74.5 -71.5v202h-524v70h1074v-70h-472z" />
    <glyph glyph-name="dvvL" unicode="&#x90c;" horiz-adv-x="900" 
d="M674 670v-129q72 -14 114.5 -73.5t42.5 -151.5q0 -52 -16 -100h-8q-62 0 -94 -29.5t-32 -76.5q0 -52 33.5 -77t85.5 -25q34 0 58 8v-67q-34 -9 -67 -9q-84 0 -137 42.5t-53 123.5q0 62 39 105.5t102 52.5q6 26 6 53q0 68 -33 111.5t-94 43.5q-66 0 -100 -49.5t-34 -133.5
v-18h-70v18q0 82 -32.5 132.5t-95.5 50.5q-65 0 -100 -43.5t-35 -113.5q0 -78 41.5 -124t117.5 -46q18 0 29 1v-73q-26 -2 -34 -2q-114 0 -176 67.5t-62 177.5q0 71 26 122.5t73 79t109 27.5q72 0 114.5 -42t57.5 -103h3q13 53 47.5 92t92.5 49v129h-619v70h952v-70h-252z
" />
    <glyph glyph-name="dvEcandra" unicode="&#x90d;" horiz-adv-x="652" 
d="M381 426q56 0 80 31t24 99v114h-300v-399q0 -85 40 -132.5t118 -47.5q70 0 109.5 41t39.5 116h81q0 -108 -61 -168.5t-168 -60.5q-120 0 -181 68.5t-61 186.5v396h-128v70h704v-70h-111v-116q0 -104 -39.5 -154t-129.5 -50q-10 0 -38 2v75q7 -1 21 -1zM215.5 862
q-45.5 24 -67.5 64t-22 88h72q0 -46 33 -79.5t98 -33.5q64 0 97.5 33.5t33.5 79.5h72q0 -48 -22 -87.5t-68 -64t-113 -24.5q-68 0 -113.5 24z" />
    <glyph glyph-name="dvE" unicode="&#x90f;" horiz-adv-x="652" 
d="M381 426q56 0 80 31t24 99v114h-300v-399q0 -85 40 -132.5t118 -47.5q70 0 109.5 41t39.5 116h81q0 -108 -61 -168.5t-168 -60.5q-120 0 -181 68.5t-61 186.5v396h-128v70h704v-70h-111v-116q0 -104 -39.5 -154t-129.5 -50q-10 0 -38 2v75q7 -1 21 -1z" />
    <glyph glyph-name="dvAI" unicode="&#x910;" horiz-adv-x="652" 
d="M381 426q56 0 80 31t24 99v114h-300v-399q0 -85 40 -132.5t118 -47.5q70 0 109.5 41t39.5 116h81q0 -108 -61 -168.5t-168 -60.5q-120 0 -181 68.5t-61 186.5v396h-128v70h704v-70h-111v-116q0 -104 -39.5 -154t-129.5 -50q-10 0 -38 2v75q7 -1 21 -1zM399.5 855
q-33.5 37 -65 47.5t-85.5 10.5h-42v68h41q73 0 116 -15t88 -66t112 -164h-79q-52 82 -85.5 119z" />
    <glyph glyph-name="dvOcandra" unicode="&#x911;" horiz-adv-x="1121" 
d="M854 740v-70h-132v-670h-83v327l-159 1q18 -39 18 -83q0 -87 -55 -139.5t-147 -52.5q-64 0 -114.5 25.5t-79 71.5t-28.5 106h78q0 -57 38.5 -94t99.5 -37q60 0 96 35.5t36 92.5q0 43 -23 75h-3l-1 6q-37 46 -113 46h-40v68h40q61 0 95 33.5t34 78.5q0 55 -35 86.5
t-88 31.5q-55 0 -92.5 -31.5t-36.5 -82.5h-77q0 56 26.5 97.5t73 64.5t106.5 23q88 0 143 -48.5t55 -128.5q0 -58 -31 -99t-90 -56v-2q30 -5 52 -18h222v343h215zM932 670h-131v70h346v-70h-131v-670h-84v670zM716.5 862q-45.5 24 -67.5 64t-22 88h72q0 -46 33 -79.5
t98 -33.5q64 0 97.5 33.5t33.5 79.5h72q0 -48 -22 -87.5t-68 -64t-113 -24.5q-68 0 -113.5 24z" />
    <glyph glyph-name="dvO" unicode="&#x913;" horiz-adv-x="1121" 
d="M849.5 855q-33.5 37 -65 47.5t-85.5 10.5h-42v68h41q73 0 116 -15t88 -66t112 -164h-79q-52 82 -85.5 119zM854 740v-70h-132v-670h-83v327l-159 1q18 -39 18 -83q0 -87 -55 -139.5t-147 -52.5q-64 0 -114.5 25.5t-79 71.5t-28.5 106h78q0 -57 38.5 -94t99.5 -37
q60 0 96 35.5t36 92.5q0 43 -23 75h-3l-1 6q-37 46 -113 46h-40v68h40q61 0 95 33.5t34 78.5q0 55 -35 86.5t-88 31.5q-55 0 -92.5 -31.5t-36.5 -82.5h-77q0 56 26.5 97.5t73 64.5t106.5 23q88 0 143 -48.5t55 -128.5q0 -58 -31 -99t-90 -56v-2q30 -5 52 -18h222v343h215z
M932 670h-131v70h346v-70h-131v-670h-84v670z" />
    <glyph glyph-name="dvAU" unicode="&#x914;" horiz-adv-x="1121" 
d="M807 1024.5q40 -16.5 85.5 -79t120.5 -208.5h-72q-61 48 -94 67.5t-63.5 24.5t-89.5 5h-42v55h40q58 0 88 -4t62 -21t80 -57q-46 84 -80.5 122t-65 47.5t-81.5 9.5h-43v55h42q73 0 113 -16.5zM854 740v-70h-132v-670h-83v327l-159 1q18 -39 18 -83q0 -87 -55 -139.5
t-147 -52.5q-64 0 -114.5 25.5t-79 71.5t-28.5 106h78q0 -57 38.5 -94t99.5 -37q60 0 96 35.5t36 92.5q0 43 -23 75h-3l-1 6q-37 46 -113 46h-40v68h40q61 0 95 33.5t34 78.5q0 55 -35 86.5t-88 31.5q-55 0 -92.5 -31.5t-36.5 -82.5h-77q0 56 26.5 97.5t73 64.5t106.5 23
q88 0 143 -48.5t55 -128.5q0 -58 -31 -99t-90 -56v-2q30 -5 52 -18h222v343h215zM932 670h-131v70h346v-70h-131v-670h-84v670z" />
    <glyph glyph-name="dvKA" unicode="&#x915;" horiz-adv-x="994" 
d="M543 670v-216q21 48 65 76.5t108 28.5q60 0 108 -29t74.5 -80.5t26.5 -117.5q0 -71 -27 -123t-74.5 -79.5t-107.5 -27.5q-37 0 -62 7v66q16 -4 42 -4q63 0 103.5 42.5t40.5 116.5q0 71 -42 114t-105 43q-75 0 -112.5 -49.5t-37.5 -116.5v-321h-80v202q-23 -48 -69 -76.5
t-111 -28.5q-62 0 -110.5 28.5t-75.5 81.5t-27 123q0 68 27.5 120t76.5 80.5t112 28.5q65 0 110 -28t67 -74v213h-489v70h1047v-70h-478zM394 191.5q35 23.5 52 60.5t17 75v1q0 40 -16.5 76.5t-51.5 59.5t-86 23q-66 0 -110.5 -42.5t-44.5 -114.5q0 -75 43 -118.5t111 -43.5
q51 0 86 23.5z" />
    <glyph glyph-name="dvKHA" unicode="&#x916;" horiz-adv-x="933" 
d="M960 740v-70h-132v-670h-83v217q-21 -37 -59 -59t-91 -22q-20 0 -38 3q-31 -64 -87.5 -103t-136.5 -39q-114 0 -181.5 65.5t-67.5 180.5v155h35q66 0 104 33.5t38 117.5v121h-287v70h986zM429.5 95.5q38.5 26.5 59.5 68.5q-43 26 -67.5 73t-24.5 107q0 59 26 105t71 71
t101 25q53 0 91 -22t59 -59v206h-400v-131q0 -105 -49 -153t-130 -49v-102q0 -75 45.5 -120.5t123.5 -45.5q56 0 94.5 26.5zM685.5 221.5q30.5 20.5 45 52.5t14.5 67q0 55 -33.5 97t-100.5 42q-59 0 -99 -37t-40 -99q0 -67 39.5 -105t99.5 -38q44 0 74.5 20.5z" />
    <glyph glyph-name="dvGA" unicode="&#x917;" horiz-adv-x="745" 
d="M772 740v-70h-132v-670h-83v670h-178v-271q0 -78 -40.5 -126.5t-124.5 -48.5q-80 0 -123 47t-43 124v31h81v-32q0 -42 20 -70t63 -28q46 0 64.5 28.5t18.5 71.5v274h-321v70h798z" />
    <glyph glyph-name="dvGHA" unicode="&#x918;" horiz-adv-x="710" 
d="M737 670h-131v-670h-84v220q-31 -54 -87.5 -84t-127.5 -30q-100 0 -162 47t-62 135q0 63 38.5 103t94.5 49v3q-53 9 -85 46t-32 105v76h-125v70h763v-70zM522 670h-339v-73q0 -60 32 -90t104 -30h47v-69h-53q-73 0 -109.5 -31t-36.5 -81q0 -60 43.5 -90.5t114.5 -30.5
q54 0 99 23.5t71.5 65.5t26.5 96v310z" />
    <glyph glyph-name="dvNGA" unicode="&#x919;" horiz-adv-x="660" 
d="M686 740v-70h-219v-182h-177q-51 0 -85.5 -18t-34.5 -65q0 -43 29.5 -62.5t76.5 -19.5h45q87 0 146 -40t59 -129q0 -76 -55 -122t-156 -46q-111 0 -177 52.5t-68 140.5h83q1 -58 42.5 -93.5t117.5 -35.5q65 0 99.5 29t34.5 75q0 58 -39.5 83t-100.5 25h-41
q-74 0 -127 34.5t-53 111.5q0 73 52 107t129 34h119v121h-412v70h712zM625 430q15 -15 15 -37t-15 -36.5t-37 -14.5t-37 14.5t-15 36.5t15 37t37 15t37 -15z" />
    <glyph glyph-name="dvCA" unicode="&#x91a;" horiz-adv-x="735" 
d="M761 670h-132v-670h-83v204q-27 -48 -78 -76t-114 -28q-59 0 -107.5 23.5t-76.5 69t-28 107.5q0 53 23.5 95t66.5 66h-182v67h363v-67h-35q-71 0 -114.5 -41.5t-43.5 -106.5q0 -66 44.5 -104.5t109.5 -38.5q50 0 89.5 23.5t61 64.5t21.5 91v321h-572v70h787v-70z" />
    <glyph glyph-name="dvCHA" unicode="&#x91b;" horiz-adv-x="817" 
d="M625 670v-123q65 -13 105.5 -66t40.5 -140q0 -96 -46.5 -167t-131 -109t-195.5 -38q-148 0 -236.5 56.5t-88.5 163.5q0 68 38.5 110t100.5 55v2q-52 9 -84 46t-32 105v105h-122v70h870v-70h-219zM548 670h-368v-102q0 -60 31 -90.5t100 -30.5h22v-67h-20
q-77 0 -116 -35.5t-39 -90.5q0 -75 63.5 -115t176.5 -40q88 0 155.5 29.5t105 84.5t37.5 131q0 68 -32.5 105.5t-77.5 37.5q-42 0 -73.5 -28.5t-31.5 -86.5q0 -40 16 -93h-70q-17 49 -17 101q0 75 38.5 116.5t99.5 51.5v122z" />
    <glyph glyph-name="dvJA" unicode="&#x91c;" horiz-adv-x="840" 
d="M867 670h-132v-670h-83v427h-190v-94q0 -90 -52.5 -146t-142.5 -56t-141 55.5t-51 146.5v166h84v-165q0 -59 29 -94.5t80 -35.5q52 0 82.5 35.5t30.5 94.5v165h271v171h-678v70h893v-70z" />
    <glyph glyph-name="dvJHA" unicode="&#x91d;" horiz-adv-x="849" 
d="M876 670h-132v-670h-82v259l-189 1q49 -42 49 -116q0 -66 -44.5 -108.5t-127.5 -42.5q-71 0 -111.5 27t-58.5 57v-154h-79v248h74q7 -50 46 -82.5t106 -32.5q58 0 88 28t30 70q0 51 -36 79.5t-105 28.5q-35 0 -53 1q-71 2 -120 37.5t-49 105.5q0 75 52.5 109.5
t130.5 34.5h119v120h-410v70h902v-70zM662 323v347h-197v-182h-177q-52 0 -87 -18t-35 -65q0 -43 30 -62.5t79 -19.5h44h343z" />
    <glyph glyph-name="dvNYA" unicode="&#x91e;" horiz-adv-x="810" 
d="M836 670h-131v-670h-84v293h-106q-9 -90 -68.5 -147t-156.5 -57q-63 0 -110.5 23.5t-75 63t-34.5 87.5h79q12 -43 48 -72.5t94 -29.5q72 0 111 47t39 118q0 68 -39 115t-111 47q-60 0 -96 -30t-46 -73h-79q10 75 67 125t153 50q95 0 154 -55t71 -141h106v306h-647v70h862
v-70z" />
    <glyph glyph-name="dvTTA" unicode="&#x91f;" horiz-adv-x="650" 
d="M212 434.5q-59 -48.5 -59 -139.5q0 -52 24 -93t66.5 -64t95.5 -23q54 0 96.5 24t66 66.5t23.5 96.5h80q0 -76 -33 -135t-93 -92t-139 -33q-78 0 -139.5 32t-96 89.5t-34.5 131.5q0 83 36.5 141t101.5 88t151 30h23v116h-408v70h703v-70h-213v-187h-101q-92 0 -151 -48.5z
" />
    <glyph glyph-name="dvTTHA" unicode="&#x920;" horiz-adv-x="676" 
d="M378 670v-122q65 -8 116.5 -40.5t81.5 -86t30 -122.5q0 -74 -35 -131.5t-96 -89t-137 -31.5t-137 31.5t-96 88.5t-35 132q0 69 29.5 122t81 85.5t115.5 40.5v123h-322v70h728v-70h-324zM499.5 392q-23.5 41 -66 64t-95.5 23t-95.5 -23t-66 -64t-23.5 -93t23.5 -93.5
t66 -64.5t95.5 -23t95.5 23t66 64.5t23.5 93.5t-23.5 93z" />
    <glyph glyph-name="dvDDA" unicode="&#x921;" horiz-adv-x="574" 
d="M204.5 470q-34.5 -18 -34.5 -65q0 -43 29.5 -62.5t76.5 -19.5h45q87 0 146 -40t59 -129q0 -76 -55 -122t-156 -46q-111 0 -177 52.5t-68 140.5h83q1 -58 42.5 -93.5t117.5 -35.5q65 0 99.5 29t34.5 75q0 58 -39.5 83t-100.5 25h-41q-74 0 -127 34.5t-53 111.5
q0 73 52 107t129 34h114v121h-407v70h627v-70h-139v-182h-172q-51 0 -85.5 -18z" />
    <glyph glyph-name="dvDDHA" unicode="&#x922;" horiz-adv-x="641" 
d="M216.5 442.5q-65.5 -55.5 -65.5 -161.5q0 -61 27 -109t77.5 -75t116.5 -27q73 0 120 36.5t47 96.5q0 45 -28 74t-71 29q-38 0 -64.5 -24.5t-26.5 -63.5q0 -9 2 -19h-62q-3 27 -3 30q0 64 44.5 101t112.5 37q77 0 123 -45.5t46 -118.5q0 -58 -29.5 -102.5t-83.5 -68.5
t-128 -24q-86 0 -154.5 34t-107.5 96.5t-39 145.5q0 89 38 150.5t104.5 92.5t151.5 31h40v112h-430v70h693v-70h-184v-172h-95q-106 0 -171.5 -55.5z" />
    <glyph glyph-name="dvNNA" unicode="&#x923;" horiz-adv-x="856" 
d="M882 670h-131v-670h-84v670h-195v-287q0 -90 -50 -145t-141 -55q-90 0 -140 55.5t-50 144.5v287h-117v70h908v-70zM390 670h-217v-294q0 -55 29.5 -88.5t79.5 -33.5q51 0 79.5 33.5t28.5 88.5v294z" />
    <glyph glyph-name="dvTA" unicode="&#x924;" horiz-adv-x="694" 
d="M720 670h-132v-670h-83v426h-146q-96 0 -150.5 -45t-54.5 -133q0 -85 48.5 -132.5t138.5 -47.5h22v-66h-33q-119 0 -189.5 63.5t-70.5 183.5q0 125 77.5 187t207.5 62h150v172h-531v70h746v-70z" />
    <glyph glyph-name="dvTHA" unicode="&#x925;" horiz-adv-x="766" 
d="M793 740v-70h-132v-670h-84v229q-22 -54 -80.5 -92t-145.5 -38q-84 0 -145 33t-94 95t-33 145q0 25 3 52h98q206 0 206 142q0 48 -28.5 79.5t-78.5 31.5q-53 0 -82.5 -31.5t-29.5 -84.5q0 -15 4 -43h-76q-4 30 -4 46q0 86 52.5 135.5t136.5 49.5q55 0 97 -23.5t65 -65.5
t23 -96q0 -100 -69.5 -150.5t-185.5 -50.5h-50q-1 -88 51 -141t151 -53q59 0 108 25.5t78 73t29 111.5v361h216z" />
    <glyph glyph-name="dvDA" unicode="&#x926;" horiz-adv-x="609" 
d="M208 445q-53 -43 -53 -122q0 -71 42.5 -114t114.5 -43q35 0 67.5 15t53.5 45.5t21 75.5h77v-318h-82v192q-21 -35 -63.5 -56t-95.5 -21q-64 0 -114 27t-78 78t-28 121q0 76 35 129t95 79.5t135 26.5h73v110h-434v70h662l-1 -70h-143v-182h-149q-82 0 -135 -43z" />
    <glyph glyph-name="dvDHA" unicode="&#x927;" horiz-adv-x="712" 
d="M742 670h-130v-670h-84v219q-30 -57 -88 -89t-135 -32q-95 0 -156 45.5t-61 128.5q0 62 36.5 99.5t85.5 45.5v3q-54 13 -91 54t-37 110q0 73 47 119t123 46q77 0 121.5 -44t44.5 -115q0 -22 -1 -33h-64l1 24q0 42 -26.5 69.5t-72.5 27.5q-47 0 -74 -29t-27 -74
q0 -56 41.5 -88t110.5 -32h57v-69h-54q-66 0 -101 -29t-35 -77q0 -55 42 -84t109 -29q58 0 104.5 26t73 72.5t26.5 105.5v369h214v-70z" />
    <glyph glyph-name="dvNA" unicode="&#x928;" horiz-adv-x="790" 
d="M816 670h-132v-670h-83v434h-195q25 -23 39.5 -57t14.5 -76q0 -56 -25.5 -98t-69.5 -64t-99 -22q-57 0 -103.5 24t-73 67.5t-26.5 101.5q0 60 27.5 104t75 67t107.5 23h328v166h-627v70h842v-70zM357 222.5q35 34.5 35 88.5q0 53 -35 88t-90 35q-56 0 -92 -34.5
t-36 -89.5q0 -54 35.5 -88t92.5 -34q55 0 90 34.5z" />
    <glyph glyph-name="dvPA" unicode="&#x92a;" horiz-adv-x="655" 
d="M681 670h-131v-670h-83v283q-25 -41 -67.5 -63.5t-100.5 -22.5q-105 0 -159.5 66.5t-54.5 181.5v225h-111v70h707v-70zM467 670h-299v-225q0 -84 37.5 -130.5t113.5 -46.5q69 0 108.5 44.5t39.5 110.5v247z" />
    <glyph glyph-name="dvPHA" unicode="&#x92b;" horiz-adv-x="985" 
d="M531 670v-216q22 48 67 76.5t110 28.5q60 0 107.5 -28.5t74 -79.5t26.5 -117q0 -72 -27 -124.5t-74.5 -80t-107.5 -27.5q-35 0 -64 8v65q22 -5 45 -5q64 0 104 43t40 117q0 71 -42 114t-106 43q-76 0 -114.5 -51t-38.5 -123v-313h-83v281q-23 -40 -63.5 -62t-94.5 -22
q-100 0 -152.5 65.5t-52.5 178.5v229h-111v70h1038v-70h-481zM448 670h-280v-229q0 -82 35 -127.5t106 -45.5q65 0 102 43.5t37 107.5v251z" />
    <glyph glyph-name="dvBA" unicode="&#x92c;" horiz-adv-x="689" 
d="M715 740v-70h-131v-670h-81v196q-24 -47 -73.5 -76t-117.5 -29q-67 0 -122.5 29.5t-87.5 84t-32 125.5t31.5 125.5t86.5 84t123 29.5t116.5 -29t75.5 -77v207h-529v70h741zM202 467l275 -240q31 47 31 104q0 46 -21 87.5t-62 67.5t-99 26q-73 0 -124 -45zM168.5 235.5
q24.5 -40.5 66.5 -62t93 -21.5q75 0 123 45l-275 241q-32 -46 -32 -108q0 -54 24.5 -94.5z" />
    <glyph glyph-name="dvBHA" unicode="&#x92d;" horiz-adv-x="795" 
d="M822 740v-70h-133v-670h-83v385h-164v-77q0 -100 -47 -153.5t-134 -53.5q-83 0 -134 48.5t-51 128.5q0 82 54.5 129t139.5 47h94v94q0 61 -22.5 95t-69.5 34q-41 0 -66 -28t-25 -77q0 -17 3 -38h-83q-4 26 -4 41q0 79 46 126.5t126 47.5q89 0 131 -57t42 -157v-81h164
v286h216zM364 385h-92q-52 0 -85 -29t-33 -78q0 -48 30 -77t76 -29q49 0 76.5 34.5t27.5 96.5v82z" />
    <glyph glyph-name="dvMA" unicode="&#x92e;" horiz-adv-x="786" 
d="M813 670h-132v-670h-84v385h-183v-77q0 -100 -47 -153.5t-134 -53.5q-84 0 -134.5 48.5t-50.5 128.5q0 83 54 129.5t139 46.5h95v216h-362v70h839v-70zM597 670h-183v-216h183v216zM336 385h-93q-52 0 -84.5 -29t-32.5 -78q0 -48 29.5 -77t75.5 -29q49 0 77 34.5t28 96.5
v82z" />
    <glyph glyph-name="dvYA" unicode="&#x92f;" horiz-adv-x="737" 
d="M764 670h-132v-670h-83v219q-29 -49 -84 -78.5t-132 -29.5q-125 0 -194.5 76t-69.5 206q0 25 3 47h14q89 0 134 37.5t45 123.5v69h-291v70h790v-70zM549 670h-202v-82q0 -187 -196 -195v-7q0 -95 52.5 -149.5t146.5 -54.5q56 0 101.5 23.5t71.5 66.5t26 98v300z" />
    <glyph glyph-name="dvRA" unicode="&#x930;" horiz-adv-x="535" 
d="M165 339v-137q0 -63 29 -101t85 -38q53 0 83.5 35.5t30.5 93.5v19h80v-17q0 -93 -51.5 -148t-141.5 -55q-95 0 -146.5 59.5t-51.5 155.5v201h106q171 0 171 168v95h-385v70h588v-70h-120v-95q0 -114 -56 -175t-170 -61h-51z" />
    <glyph glyph-name="dvRxA" unicode="&#x931;" horiz-adv-x="535" 
d="M165 339v-137q0 -63 29 -101t85 -38q53 0 83.5 35.5t30.5 93.5v19h80v-17q0 -93 -51.5 -148t-141.5 -55q-95 0 -146.5 59.5t-51.5 155.5v201h106q171 0 171 168v95h-385v70h588v-70h-120v-95q0 -114 -56 -175t-170 -61h-51zM75 -144q-16 16 -16 39q0 24 16 40.5t40 16.5
t40 -16.5t16 -40.5q0 -23 -16 -39t-40 -16t-40 16z" />
    <glyph glyph-name="dvLA" unicode="&#x932;" horiz-adv-x="904" 
d="M684 670v-133q69 -17 109.5 -75.5t40.5 -147.5q0 -71 -27 -126.5t-81 -87t-130 -31.5q-8 0 -34 2v73q20 -2 29 -2q75 0 117 47t42 124q0 68 -33.5 112t-95.5 44q-66 0 -100 -49.5t-34 -133.5v-15h-70v15q0 83 -32.5 133t-95.5 50q-65 0 -100 -43.5t-35 -112.5
q0 -77 41.5 -124t117.5 -47q7 0 29 2v-73q-26 -2 -34 -2q-76 0 -130 31.5t-81 87t-27 126.5q0 70 26 122t73.5 79.5t108.5 27.5q73 0 115 -42t58 -103h2q15 55 51 94.5t98 48.5v129h-628v70h956v-70h-246z" />
    <glyph glyph-name="dvLLA" unicode="&#x933;" horiz-adv-x="997" 
d="M755 670v-126q77 -16 125 -76.5t48 -147.5q0 -66 -29.5 -117t-81 -79.5t-114.5 -28.5q-75 0 -129.5 39.5t-73.5 100.5h-3q-20 -62 -74 -101t-129 -39q-63 0 -114 28.5t-80.5 79.5t-29.5 117q0 68 29.5 120t80.5 80.5t114 28.5q75 0 126.5 -37.5t76.5 -100.5h3
q22 56 66.5 92.5t107.5 43.5v123h-700v70h1050v-70h-269zM415 209.5q42 42.5 42 110.5q0 69 -42 113t-110 44t-111 -43.5t-43 -114.5q0 -68 43.5 -110t110.5 -42q68 0 110 42.5zM803 433.5q-43 43.5 -110 43.5q-69 0 -111 -44t-42 -113q0 -68 42 -110.5t110 -42.5
q67 0 110.5 42t43.5 110q0 71 -43 114.5z" />
    <glyph glyph-name="dvVA" unicode="&#x935;" horiz-adv-x="674" 
d="M701 740v-70h-132v-670h-81v202q-25 -49 -74 -78t-116 -29t-118.5 29.5t-80.5 83t-29 124.5q0 68 29 120.5t81 81.5t118 29q68 0 116.5 -28.5t73.5 -76.5v212h-514v70h727zM413 187.5q38 24.5 56.5 62.5t18.5 78q0 42 -18.5 80.5t-56.5 62.5t-94 24q-47 0 -85 -20
t-60 -57.5t-22 -86.5q0 -77 47 -122.5t120 -45.5q56 0 94 24.5z" />
    <glyph glyph-name="dvSHA" unicode="&#x936;" horiz-adv-x="814" 
d="M174 320v-110q0 -66 31.5 -106t95.5 -40q55 0 87 36.5t32 97.5v13h81q1 -6 1 -14q0 -95 -53.5 -150t-145.5 -55q-102 0 -158 60.5t-56 162.5v176h147q85 0 138.5 38.5t53.5 113.5q0 61 -33.5 97t-90.5 36q-56 0 -89.5 -35.5t-33.5 -96.5q0 -21 3 -44h-83q-4 32 -4 46
q0 91 56 147t151 56t152 -55.5t57 -155.5q0 -105 -69.5 -161.5t-179.5 -56.5h-90zM841 740v-70h-132v-670h-84v740h216z" />
    <glyph glyph-name="dvSSA" unicode="&#x937;" horiz-adv-x="662" 
d="M688 670h-132v-670h-82v278q-25 -41 -67.5 -63.5t-102.5 -22.5q-107 0 -163 68t-56 185v225h-111v70h714v-70zM474 670h-308l308 -249v249zM412 289.5q37 26.5 52 71.5l-298 242v-160q0 -85 38.5 -132.5t115.5 -47.5q55 0 92 26.5z" />
    <glyph glyph-name="dvSA" unicode="&#x938;" horiz-adv-x="819" 
d="M846 670h-132v-670h-84v350h-465v-147q0 -63 29.5 -101.5t86.5 -38.5q53 0 84 35.5t31 93.5v12h80q1 -7 1 -16q0 -90 -52.5 -143.5t-142.5 -53.5q-97 0 -148.5 59.5t-51.5 156.5v204h94q84 0 127.5 45t43.5 123v91h-373v70h872v-70zM630 670h-201v-91q0 -52 -16 -93
t-45 -68h262v252z" />
    <glyph glyph-name="dvHA" unicode="&#x939;" horiz-adv-x="586" 
d="M211 473q-30 -19 -30 -61q0 -31 19 -52.5t52 -30.5q28 5 56 5q97 0 152.5 -47.5t67.5 -117.5h-80q-9 39 -45.5 68.5t-95.5 29.5q-70 0 -110.5 -43t-40.5 -108q0 -66 40 -108t111 -42q56 0 93 28.5t48 66.5h80q-7 -45 -35 -82.5t-76 -60t-110 -22.5q-73 0 -125.5 29
t-79.5 79t-27 113t28.5 112t79.5 76q-39 16 -62 47t-23 75q0 61 45 93.5t118 32.5h130v117h-417v70h638v-70h-141v-178h-183q-47 0 -77 -19z" />
    <glyph glyph-name="dvNukta" unicode="&#x93c;" horiz-adv-x="0" 
d="M-399 -132q-16 16 -16 39q0 24 16 40.5t40 16.5t40 -16.5t16 -40.5q0 -23 -16 -39t-40 -16t-40 16z" />
    <glyph glyph-name="dvAvagraha" unicode="&#x93d;" horiz-adv-x="576" 
d="M76 132h233q40 0 61.5 18t21.5 46q0 33 -26.5 62.5t-82.5 77.5q-47 39 -77 69t-51 67t-21 79q0 62 41.5 91.5t109.5 29.5h203v-71h-184q-39 0 -62 -13.5t-23 -47.5t28 -66t84 -78q48 -41 76.5 -69.5t49 -64.5t20.5 -77q0 -54 -38.5 -88.5t-110.5 -34.5h-252v70z" />
    <glyph glyph-name="dvmAA" unicode="&#x93e;" 
d="M105 670h-131v70h346v-70h-131v-670h-84v670z" />
    <glyph glyph-name="dvmI" unicode="&#x93f;" 
d="M681.5 967.5q87.5 -28.5 140 -87t52.5 -143.5v-17h-83v16q0 68 -45 111t-113 61.5t-143 18.5q-124 0 -212 -42t-90 -145h132v-70h-131v-670h-84v670h-131v70h131q1 88 54 145.5t139.5 84t191.5 26.5q104 0 191.5 -28.5z" />
    <glyph glyph-name="dvmII" unicode="&#x940;" 
d="M320 740v-70h-131v-670h-84v670h-131v70h133v42q0 62 -23.5 102.5t-82.5 40.5t-83.5 -41t-24.5 -102v-61h-82v58q0 98 45.5 157.5t144.5 59.5t143.5 -59t44.5 -158v-39h131z" />
    <glyph glyph-name="dvmU" unicode="&#x941;" horiz-adv-x="0" 
d="M-364 -247.5q-66 52.5 -63 157.5h75q-4 -72 39 -107.5t114 -35.5q59 0 93.5 27.5t34.5 76.5q0 38 -25 65t-68 27h-25v66h25q78 0 121.5 -44.5t43.5 -114.5q0 -79 -53 -124.5t-145 -45.5q-101 0 -167 52.5z" />
    <glyph glyph-name="dvmUU" unicode="&#x942;" horiz-adv-x="0" 
d="M-294.5 -251q-46.5 41 -46.5 114q0 75 53 119t139 44q118 0 180.5 -76t62.5 -201q0 -23 -1 -34h-69v41q0 97 -47 152t-126 55q-56 0 -89.5 -27.5t-33.5 -73.5q0 -42 28.5 -67t72.5 -25q9 0 33 2v-62q-24 -2 -38 -2q-72 0 -118.5 41z" />
    <glyph glyph-name="dvmvR" unicode="&#x943;" horiz-adv-x="0" 
d="M-272.5 -268q-55.5 42 -55.5 127q0 74 50.5 121t138.5 47h34v-59h-28q-54 0 -84 -30t-30 -76q0 -54 34.5 -79.5t87.5 -25.5q35 0 73 12v-66q-37 -13 -85 -13q-80 0 -135.5 42z" />
    <glyph glyph-name="dvmvRR" unicode="&#x944;" horiz-adv-x="0" 
d="M-263 -414.5q-49 32.5 -49 99.5q0 45 25.5 74t64.5 38v3q-41 10 -65.5 37t-24.5 71q0 61 43 90t102 29h62v-48h-33q-41 0 -67.5 -17.5t-26.5 -57.5q0 -37 27.5 -55t71.5 -18h46v-63h-46q-43 0 -71 -17.5t-28 -57.5q0 -39 29 -56.5t74 -17.5q26 0 54 5t44 10v-63
q-19 -8 -49.5 -13t-59.5 -5q-74 0 -123 32.5z" />
    <glyph glyph-name="dvmEcandra" unicode="&#x945;" horiz-adv-x="0" 
d="M-264.5 842q-45.5 24 -67.5 64t-22 88h72q0 -46 33 -79.5t98 -33.5q64 0 97.5 33.5t33.5 79.5h72q0 -48 -22 -87.5t-68 -64t-113 -24.5q-68 0 -113.5 24z" />
    <glyph glyph-name="dvmE" unicode="&#x947;" horiz-adv-x="0" 
d="M-269.5 855q-33.5 37 -65 47.5t-85.5 10.5h-42v68h41q73 0 116 -15t88 -66t112 -164h-79q-52 82 -85.5 119z" />
    <glyph glyph-name="dvmAI" unicode="&#x948;" horiz-adv-x="0" 
d="M-312 1024.5q40 -16.5 85.5 -79t120.5 -208.5h-72q-61 48 -94 67.5t-63.5 24.5t-89.5 5h-42v55h40q58 0 88 -4t62 -21t80 -57q-46 84 -80.5 122t-65 47.5t-81.5 9.5h-43v55h42q73 0 113 -16.5z" />
    <glyph glyph-name="dvmOcandra" unicode="&#x949;" 
d="M105 670h-131v70h346v-70h-131v-670h-84v670zM33.5 842q-45.5 24 -67.5 64t-22 88h72q0 -46 33 -79.5t98 -33.5q64 0 97.5 33.5t33.5 79.5h72q0 -48 -22 -87.5t-68 -64t-113 -24.5q-68 0 -113.5 24z" />
    <glyph glyph-name="dvmO" unicode="&#x94b;" 
d="M105 670h-131v70h346v-70h-131v-670h-84v670zM24.5 855q-33.5 37 -65 47.5t-85.5 10.5h-42v68h41q73 0 116 -15t88 -66t112 -164h-79q-52 82 -85.5 119z" />
    <glyph glyph-name="dvmAU" unicode="&#x94c;" 
d="M105 670h-131v70h346v-70h-131v-670h-84v670zM-20 1024.5q40 -16.5 85.5 -79t120.5 -208.5h-72q-61 48 -94 67.5t-63.5 24.5t-89.5 5h-42v55h40q58 0 88 -4t62 -21t80 -57q-46 84 -80.5 122t-65 47.5t-81.5 9.5h-43v55h42q73 0 113 -16.5z" />
    <glyph glyph-name="dvVirama" unicode="&#x94d;" horiz-adv-x="0" 
d="M-185 -61h83l124 -199h-86z" />
    <glyph glyph-name="dvOm" unicode="&#x950;" horiz-adv-x="1056" 
d="M546 920q-12 12 -12 30q0 17 12 29t30 12t29.5 -12t11.5 -29q0 -18 -11.5 -30t-29.5 -12t-30 12zM464 767.5q-46 23.5 -69 64t-23 89.5h68q0 -46 35.5 -80.5t100.5 -34.5q43 0 73.5 16.5t46 43t15.5 55.5h68q0 -49 -23 -89.5t-68.5 -64t-111.5 -23.5t-112 23.5z
M924.5 624q45.5 -62 45.5 -185v-137q0 -138 -61.5 -207.5t-193.5 -69.5q-47 0 -98 10v70q58 -9 85 -9q104 0 145.5 51.5t41.5 157.5v144q0 81 -26 123.5t-88 42.5q-58 0 -84 -34.5t-26 -92.5q0 -98 -43.5 -140t-137.5 -42h-2q23 -43 23 -95q0 -90 -56 -144.5t-148 -54.5
q-64 0 -114.5 25.5t-78.5 71.5t-28 106h78q0 -57 39 -94t99 -37t96 37t36 97q0 54 -34.5 92.5t-105.5 38.5h-40v71h40q62 0 95.5 35t33.5 83q0 57 -35.5 90.5t-89.5 33.5q-55 0 -91 -31t-36 -83h-78q0 84 57.5 134.5t148.5 50.5q89 0 145 -50t56 -134q0 -61 -31.5 -104
t-90.5 -57v-2q21 -4 42 -14h58q57 0 85.5 26t28.5 91q0 94 44 145.5t145 51.5q104 0 149.5 -62z" />
    <glyph glyph-name="dvKxA" unicode="&#x958;" horiz-adv-x="994" 
d="M543 670v-216q21 48 65 76.5t108 28.5q60 0 108 -29t74.5 -80.5t26.5 -117.5q0 -71 -27 -123t-74.5 -79.5t-107.5 -27.5q-37 0 -62 7v66q16 -4 42 -4q63 0 103.5 42.5t40.5 116.5q0 71 -42 114t-105 43q-75 0 -112.5 -49.5t-37.5 -116.5v-321h-80v202q-23 -48 -69 -76.5
t-111 -28.5q-62 0 -110.5 28.5t-75.5 81.5t-27 123q0 68 27.5 120t76.5 80.5t112 28.5q65 0 110 -28t67 -74v213h-489v70h1047v-70h-478zM394 191.5q35 23.5 52 60.5t17 75v1q0 40 -16.5 76.5t-51.5 59.5t-86 23q-66 0 -110.5 -42.5t-44.5 -114.5q0 -75 43 -118.5t111 -43.5
q51 0 86 23.5zM229 -78q-16 16 -16 39q0 24 16 40.5t40 16.5t40 -16.5t16 -40.5q0 -23 -16 -39t-40 -16t-40 16z" />
    <glyph glyph-name="dvKHxA" unicode="&#x959;" horiz-adv-x="933" 
d="M960 740v-70h-132v-670h-83v217q-21 -37 -59 -59t-91 -22q-20 0 -38 3q-31 -64 -87.5 -103t-136.5 -39q-114 0 -181.5 65.5t-67.5 180.5v155h35q66 0 104 33.5t38 117.5v121h-287v70h986zM429.5 95.5q38.5 26.5 59.5 68.5q-43 26 -67.5 73t-24.5 107q0 59 26 105t71 71
t101 25q53 0 91 -22t59 -59v206h-400v-131q0 -105 -49 -153t-130 -49v-102q0 -75 45.5 -120.5t123.5 -45.5q56 0 94.5 26.5zM685.5 221.5q30.5 20.5 45 52.5t14.5 67q0 55 -33.5 97t-100.5 42q-59 0 -99 -37t-40 -99q0 -67 39.5 -105t99.5 -38q44 0 74.5 20.5zM276 -177
q-16 16 -16 39q0 24 16 40.5t40 16.5t40 -16.5t16 -40.5q0 -23 -16 -39t-40 -16t-40 16z" />
    <glyph glyph-name="dvGxA" unicode="&#x95a;" horiz-adv-x="745" 
d="M772 740v-70h-132v-670h-83v670h-178v-271q0 -78 -40.5 -126.5t-124.5 -48.5q-80 0 -123 47t-43 124v31h81v-32q0 -42 20 -70t63 -28q46 0 64.5 28.5t18.5 71.5v274h-321v70h798zM179 44q-16 16 -16 39q0 24 16 40.5t40 16.5t40 -16.5t16 -40.5q0 -23 -16 -39t-40 -16
t-40 16z" />
    <glyph glyph-name="dvJxA" unicode="&#x95b;" horiz-adv-x="840" 
d="M867 670h-132v-670h-83v427h-190v-94q0 -90 -52.5 -146t-142.5 -56t-141 55.5t-51 146.5v166h84v-165q0 -59 29 -94.5t80 -35.5q52 0 82.5 35.5t30.5 94.5v165h271v171h-678v70h893v-70zM231 -44q-16 16 -16 39q0 24 16 40.5t40 16.5t40 -16.5t16 -40.5q0 -23 -16 -39
t-40 -16t-40 16z" />
    <glyph glyph-name="dvDDxA" unicode="&#x95c;" horiz-adv-x="574" 
d="M204.5 470q-34.5 -18 -34.5 -65q0 -43 29.5 -62.5t76.5 -19.5h45q87 0 146 -40t59 -129q0 -76 -55 -122t-156 -46q-111 0 -177 52.5t-68 140.5h83q1 -58 42.5 -93.5t117.5 -35.5q65 0 99.5 29t34.5 75q0 58 -39.5 83t-100.5 25h-41q-74 0 -127 34.5t-53 111.5
q0 73 52 107t129 34h114v121h-407v70h627v-70h-139v-182h-172q-51 0 -85.5 -18zM271 -189q-16 16 -16 39q0 24 16 40.5t40 16.5t40 -16.5t16 -40.5q0 -23 -16 -39t-40 -16t-40 16z" />
    <glyph glyph-name="dvDDHxA" unicode="&#x95d;" horiz-adv-x="641" 
d="M216.5 442.5q-65.5 -55.5 -65.5 -161.5q0 -61 27 -109t77.5 -75t116.5 -27q73 0 120 36.5t47 96.5q0 45 -28 74t-71 29q-38 0 -64.5 -24.5t-26.5 -63.5q0 -9 2 -19h-62q-3 27 -3 30q0 64 44.5 101t112.5 37q77 0 123 -45.5t46 -118.5q0 -58 -29.5 -102.5t-83.5 -68.5
t-128 -24q-86 0 -154.5 34t-107.5 96.5t-39 145.5q0 89 38 150.5t104.5 92.5t151.5 31h40v112h-430v70h693v-70h-184v-172h-95q-106 0 -171.5 -55.5zM306 -167q-16 16 -16 39q0 24 16 40.5t40 16.5t40 -16.5t16 -40.5q0 -23 -16 -39t-40 -16t-40 16z" />
    <glyph glyph-name="dvPHxA" unicode="&#x95e;" horiz-adv-x="985" 
d="M531 670v-216q22 48 67 76.5t110 28.5q60 0 107.5 -28.5t74 -79.5t26.5 -117q0 -72 -27 -124.5t-74.5 -80t-107.5 -27.5q-35 0 -64 8v65q22 -5 45 -5q64 0 104 43t40 117q0 71 -42 114t-106 43q-76 0 -114.5 -51t-38.5 -123v-313h-83v281q-23 -40 -63.5 -62t-94.5 -22
q-100 0 -152.5 65.5t-52.5 178.5v229h-111v70h1038v-70h-481zM448 670h-280v-229q0 -82 35 -127.5t106 -45.5q65 0 102 43.5t37 107.5v251zM219 24q-16 16 -16 39q0 24 16 40.5t40 16.5t40 -16.5t16 -40.5q0 -23 -16 -39t-40 -16t-40 16z" />
    <glyph glyph-name="dvvRR" unicode="&#x960;" horiz-adv-x="979" 
d="M576 670v-232h179q84 0 84 75v58h73v-355h-41q-41 0 -67 -17t-26 -57q0 -38 27 -55.5t71 -17.5h47v-63h-47q-43 0 -71 -17.5t-28 -58.5q0 -39 29 -56.5t75 -17.5q27 0 54 5t43 11v-63q-19 -8 -49 -13t-60 -5q-74 0 -123 32.5t-49 99.5q0 44 26 73.5t65 38.5v3
q-42 10 -66 36.5t-24 71.5q0 60 41.5 89t99.5 30v129q-40 -23 -96 -23h-167v-371h-78v276l-273 -276h-104v5l377 358q-11 58 -54 94.5t-108 36.5q-81 0 -131 -50.5t-50 -135.5h-83q0 77 30 135t85 90t126 32q64 0 110.5 -25.5t74.5 -71.5v202h-524v70h1075v-70h-473z" />
    <glyph glyph-name="dvvLL" unicode="&#x961;" horiz-adv-x="909" 
d="M674 670v-129q72 -14 114.5 -73.5t42.5 -151.5q0 -52 -16 -100h-38q-41 0 -67.5 -17t-26.5 -57q0 -37 27.5 -55t71.5 -18h46v-63h-46q-43 0 -71 -17.5t-28 -58.5q0 -39 29 -56.5t74 -17.5q28 0 55 5t43 11v-63q-19 -8 -49 -13t-60 -5q-74 0 -123 32.5t-49 99.5
q0 44 26 73.5t65 38.5v3q-42 10 -66.5 36.5t-24.5 71.5q0 59 41 88t98 31q6 24 6 52q0 68 -33 111.5t-94 43.5q-66 0 -100 -49.5t-34 -133.5v-18h-70v18q0 82 -32.5 132.5t-95.5 50.5q-65 0 -100 -43.5t-35 -113.5q0 -78 41.5 -124t117.5 -46q18 0 29 1v-73q-26 -2 -34 -2
q-114 0 -176 67.5t-62 177.5q0 71 26 122.5t73 79t109 27.5q72 0 114.5 -42t57.5 -103h3q13 53 47.5 92t92.5 49v129h-619v70h957v-70h-257z" />
    <glyph glyph-name="dvmvL" unicode="&#x962;" horiz-adv-x="0" 
d="M153 -403v-55q-23 -5 -50 -5q-62 0 -102 31.5t-40 90.5q0 46 28 78t75 39q3 16 3 34q0 49 -23 80t-66 31q-46 0 -70 -35.5t-24 -94.5v-12h-56v12q0 59 -23 94.5t-67 35.5q-46 0 -71 -30.5t-25 -80.5q0 -55 29.5 -87.5t82.5 -32.5q15 0 21 2v-58q-14 -2 -25 -2
q-83 0 -128.5 49t-45.5 129q0 79 42.5 124t110.5 45q52 0 83 -30.5t42 -74.5h2q11 44 43.5 74.5t87.5 30.5q66 0 106.5 -45.5t40.5 -123.5q0 -37 -11 -72h-6q-45 0 -69 -21t-24 -54q0 -36 25 -54.5t61 -18.5q24 0 43 7z" />
    <glyph glyph-name="dvmvLL" unicode="&#x963;" horiz-adv-x="0" 
d="M140.5 -518q19.5 4 30.5 8v-50q-14 -6 -35.5 -9.5t-43.5 -3.5q-54 0 -90 24t-36 73q0 33 18.5 54.5t46.5 27.5v2q-30 7 -47.5 27.5t-17.5 53.5q0 43 29 65t70 24q2 20 2 32q0 49 -23 80t-66 31q-46 0 -70 -35.5t-24 -94.5v-12h-56v12q0 59 -23 94.5t-67 35.5
q-46 0 -71 -30.5t-25 -80.5q0 -55 29.5 -87.5t82.5 -32.5q15 0 21 2v-58q-14 -2 -25 -2q-83 0 -128.5 49t-45.5 129q0 79 42.5 124t110.5 45q52 0 83 -30.5t42 -74.5h2q11 44 43.5 74.5t87.5 30.5q66 0 106.5 -45.5t40.5 -123.5q0 -37 -11 -72h-29q-29 0 -47.5 -12.5
t-18.5 -39.5t19 -39.5t51 -12.5h33v-51h-31q-73 0 -73 -53q0 -27 21 -39.5t53 -12.5q20 0 39.5 4z" />
    <glyph glyph-name="danda" unicode="&#x964;" horiz-adv-x="282" 
d="M239 0h-83v741h83v-741z" />
    <glyph glyph-name="doubledanda" unicode="&#x965;" horiz-adv-x="493" 
d="M239 0h-83v741h83v-741zM450 0h-83v741h83v-741z" />
    <glyph glyph-name="dvZero" unicode="&#x966;" horiz-adv-x="614" 
d="M113 92q56 -95 194 -95t194.5 95t56.5 265q0 168 -56.5 263t-194.5 95t-194 -94.5t-56 -263.5q0 -170 56 -265zM455.5 211.5q-12.5 -58.5 -47.5 -93.5t-101 -35q-65 0 -100 35t-47.5 93.5t-12.5 145.5q0 86 12.5 144t47.5 92.5t100 34.5q66 0 101 -34.5t47.5 -92.5
t12.5 -144q0 -87 -12.5 -145.5z" />
    <glyph glyph-name="dvOne" unicode="&#x967;" horiz-adv-x="287" 
d="M13 620v85h202v-705h-96v620h-106z" />
    <glyph glyph-name="dvTwo" unicode="&#x968;" horiz-adv-x="567" 
d="M314 296.5q102 112.5 102 209.5q0 60 -30.5 96.5t-98.5 36.5q-70 0 -106 -44.5t-40 -122.5h-90q7 118 73 181.5t170 63.5q99 0 157 -53t58 -150q0 -80 -51.5 -162.5t-129 -153t-159.5 -119.5h358v-75h-485v66q170 114 272 226.5z" />
    <glyph glyph-name="dvThree" unicode="&#x969;" horiz-adv-x="589" 
d="M416 700q49 -24 74 -66t25 -95q0 -66 -38.5 -111t-112.5 -54v-6q77 -20 120.5 -62t43.5 -116q0 -87 -58 -142t-167 -55t-176.5 56.5t-79.5 165.5h90q9 -66 50.5 -105t112.5 -39q67 0 103 34.5t36 89.5q0 66 -51.5 100.5t-146.5 34.5h-24v76h24q184 0 184 123q0 54 -34 86
t-94 32t-101 -34.5t-48 -101.5h-89q7 100 69.5 156.5t170.5 56.5q68 0 117 -24z" />
    <glyph glyph-name="dvFour" unicode="&#x96a;" horiz-adv-x="620" 
d="M31 162v76l362 472h98v-469h104v-79h-104v-162h-92v162h-368zM405 599l-278 -358h278v358z" />
    <glyph glyph-name="dvFive" unicode="&#x96b;" horiz-adv-x="616" 
d="M532 633h-362v-236q25 34 72 54t103 20q75 0 124.5 -31.5t73 -83t23.5 -114.5q0 -109 -61 -178t-179 -69q-106 0 -173 57.5t-75 154.5h90q11 -62 51.5 -96.5t102.5 -34.5q77 0 116 46t39 121q0 73 -40 114t-113 41q-52 0 -91 -22.5t-59 -60.5h-88v399h446v-81z" />
    <glyph glyph-name="dvSix" unicode="&#x96c;" horiz-adv-x="621" 
d="M412.5 614.5q-34.5 34.5 -95.5 34.5q-85 0 -128.5 -66t-43.5 -209l1 -37q15 60 69 95.5t127 35.5q105 0 164.5 -63t59.5 -176q0 -66 -26 -119.5t-79.5 -85t-132.5 -31.5q-151 0 -207.5 95t-56.5 258q0 188 60.5 282.5t197.5 94.5q101 0 155.5 -57t64.5 -149h-87
q-8 63 -42.5 97.5zM198.5 121.5q42.5 -49.5 127.5 -49.5q70 0 112 41.5t42 116.5q0 81 -42 123.5t-116 42.5q-42 0 -80 -17t-62 -51.5t-24 -83.5q0 -73 42.5 -122.5z" />
    <glyph glyph-name="dvSeven" unicode="&#x96d;" horiz-adv-x="506" 
d="M476 639l-267 -639h-96l271 630h-370v79h462v-70z" />
    <glyph glyph-name="dvEight" unicode="&#x96e;" horiz-adv-x="625" 
d="M99 634q28 43 83 68t131 25t130.5 -25t82.5 -68t28 -95q0 -59 -32 -102t-97 -61q70 -19 109 -66t39 -116q0 -100 -71 -157t-189 -57t-189 57t-71 157q0 69 38.5 116t108.5 66q-65 18 -97 61t-32 102q0 52 28 95zM202 433.5q41 -32.5 111 -32.5t110.5 32.5t40.5 92.5
t-41 92.5t-110 32.5t-110.5 -32.5t-41.5 -92.5t41 -92.5zM188 93.5q46 -37.5 125 -37.5q78 0 124 38t46 105q0 68 -48 103t-122 35q-75 0 -123 -35t-48 -103t46 -105.5z" />
    <glyph glyph-name="dvNine" unicode="&#x96f;" horiz-adv-x="608" 
d="M204 101q35 -34 96 -34q84 0 127 65t43 206q0 27 -1 41q-14 -60 -68 -96t-127 -36q-105 0 -165 63t-60 176q0 66 26 120t79.5 85.5t132.5 31.5q152 0 208.5 -93.5t56.5 -256.5q0 -186 -58 -283.5t-194 -97.5q-101 0 -158.5 57.5t-67.5 148.5h86q9 -63 44 -97zM417.5 594
q-42.5 50 -127.5 50q-70 0 -112 -42t-42 -117q0 -80 42 -123t115 -43q42 0 80.5 17t62.5 52t24 84q0 72 -42.5 122z" />
    <glyph glyph-name="dvAbbreviationsign" unicode="&#x970;" horiz-adv-x="493" 
d="M367 232q-46 -45 -118 -45q-74 0 -121 45.5t-47 116.5q0 46 21.5 83t60 57.5t86.5 20.5q72 0 118 -45.5t46 -117.5q0 -70 -46 -115zM167 270.5q32 -30.5 82 -30.5q48 0 78.5 30t30.5 77q0 49 -30.5 80t-78.5 31q-50 0 -82 -30.5t-32 -78.5t32 -78.5z" />
    <glyph glyph-name="dvAcandra" unicode="&#x972;" horiz-adv-x="829" 
d="M854 740v-70h-132v-670h-83v327l-159 1q18 -39 18 -83q0 -87 -55 -139.5t-147 -52.5q-64 0 -114.5 25.5t-79 71.5t-28.5 106h78q0 -57 38.5 -94t99.5 -37q60 0 96 35.5t36 92.5q0 43 -23 75h-3l-1 6q-37 46 -113 46h-40v68h40q61 0 95 33.5t34 78.5q0 55 -35 86.5
t-88 31.5q-55 0 -92.5 -31.5t-36.5 -82.5h-77q0 56 26.5 97.5t73 64.5t106.5 23q88 0 143 -48.5t55 -128.5q0 -58 -31 -99t-90 -56v-2q30 -5 52 -18h222v343h215zM574.5 864q-45.5 24 -67.5 64t-22 88h72q0 -46 33 -79.5t98 -33.5q64 0 97.5 33.5t33.5 79.5h72
q0 -48 -22 -87.5t-68 -64t-113 -24.5q-68 0 -113.5 24z" />
    <glyph glyph-name="Wgrave" unicode="&#x1e80;" horiz-adv-x="974" 
d="M940 705l-179 -705h-111l-163 576l-163 -576h-111l-180 705h101l135 -599l167 599h101l167 -597l136 597h100zM529 814v-65l-213 117v74z" />
    <glyph glyph-name="wgrave" unicode="&#x1e81;" horiz-adv-x="839" 
d="M827 549l-158 -549h-98l-151 447l-152 -447h-99l-156 549h92l117 -462l152 462h95l153 -461l118 461h87zM461 657v-65l-213 117v74z" />
    <glyph glyph-name="Wacute" unicode="&#x1e82;" horiz-adv-x="974" 
d="M940 705l-179 -705h-111l-163 576l-163 -576h-111l-180 705h101l135 -599l167 599h101l167 -597l136 597h100zM652 866l-213 -117v65l213 126v-74z" />
    <glyph glyph-name="wacute" unicode="&#x1e83;" horiz-adv-x="839" 
d="M827 549l-158 -549h-98l-151 447l-152 -447h-99l-156 549h92l117 -462l152 462h95l153 -461l118 461h87zM584 709l-213 -117v65l213 126v-74z" />
    <glyph glyph-name="Wdieresis" unicode="&#x1e84;" horiz-adv-x="974" 
d="M940 705l-179 -705h-111l-163 576l-163 -576h-111l-180 705h101l135 -599l167 599h101l167 -597l136 597h100zM368.5 866.5q14.5 14.5 35.5 14.5t35.5 -14.5t14.5 -35.5q0 -20 -14.5 -34.5t-35.5 -14.5t-35.5 14.5t-14.5 34.5q0 21 14.5 35.5zM534.5 866.5
q14.5 14.5 35.5 14.5t35.5 -14.5t14.5 -35.5q0 -20 -14.5 -34.5t-35.5 -14.5t-35.5 14.5t-14.5 34.5q0 21 14.5 35.5z" />
    <glyph glyph-name="wdieresis" unicode="&#x1e85;" horiz-adv-x="839" 
d="M827 549l-158 -549h-98l-151 447l-152 -447h-99l-156 549h92l117 -462l152 462h95l153 -461l118 461h87zM301.5 709.5q14.5 14.5 35.5 14.5t35.5 -14.5t14.5 -35.5q0 -20 -14.5 -34.5t-35.5 -14.5t-35.5 14.5t-14.5 34.5q0 21 14.5 35.5zM467.5 709.5
q14.5 14.5 35.5 14.5t35.5 -14.5t14.5 -35.5q0 -20 -14.5 -34.5t-35.5 -14.5t-35.5 14.5t-14.5 34.5q0 21 14.5 35.5z" />
    <glyph glyph-name="uni1EBC" unicode="&#x1ebc;" horiz-adv-x="506" 
d="M164 631v-241h268v-70h-268v-246h298v-74h-389v705h389v-74h-298zM242 862q15 -7 33 -20q18 -12 28.5 -17t24.5 -5q18 0 29.5 12t14.5 35h51q-7 -50 -32.5 -77t-64.5 -27q-21 0 -36.5 7t-34.5 20q-15 11 -26 16t-24 5q-37 0 -43 -47h-50q8 53 32.5 79t63.5 26q19 0 34 -7
z" />
    <glyph glyph-name="uni1EBD" unicode="&#x1ebd;" horiz-adv-x="624" 
d="M574 255h-439q3 -94 53.5 -141t123.5 -47q66 0 110.5 33.5t54.5 89.5h97q-10 -57 -44.5 -102t-89.5 -70t-124 -25q-79 0 -140 34t-95.5 97.5t-34.5 149.5t34.5 150t95.5 98t140 34q80 0 139.5 -34t91 -91t31.5 -126q0 -29 -4 -50zM466 401q-23 41 -63 61t-87 20
q-75 0 -126 -46.5t-55 -136.5h351q3 61 -20 102zM287 705q15 -7 33 -20q18 -12 28.5 -17t24.5 -5q18 0 29.5 12t14.5 35h51q-7 -50 -32.5 -77t-64.5 -27q-21 0 -36.5 7t-34.5 20q-15 11 -26 16t-24 5q-37 0 -43 -47h-50q8 53 32.5 79t63.5 26q19 0 34 -7z" />
    <glyph glyph-name="Ygrave" unicode="&#x1ef2;" horiz-adv-x="593" 
d="M574 705l-231 -438v-267h-92v267l-232 438h106l173 -341l172 341h104zM339 814v-65l-213 117v74z" />
    <glyph glyph-name="ygrave" unicode="&#x1ef3;" horiz-adv-x="565" 
d="M111 549l178 -432l165 432h101l-326 -809h-103l114 269l-231 540h102zM324 657v-65l-213 117v74z" />
    <glyph glyph-name="uni1EF8" unicode="&#x1ef8;" horiz-adv-x="593" 
d="M574 705l-231 -438v-267h-92v267l-232 438h106l173 -341l172 341h104zM271 862q15 -7 33 -20q18 -12 28.5 -17t24.5 -5q18 0 29.5 12t14.5 35h51q-7 -50 -32.5 -77t-64.5 -27q-21 0 -36.5 7t-34.5 20q-15 11 -26 16t-24 5q-37 0 -43 -47h-50q8 53 32.5 79t63.5 26
q19 0 34 -7z" />
    <glyph glyph-name="uni1EF9" unicode="&#x1ef9;" horiz-adv-x="565" 
d="M111 549l178 -432l165 432h101l-326 -809h-103l114 269l-231 540h102zM257 705q15 -7 33 -20q18 -12 28.5 -17t24.5 -5q18 0 29.5 12t14.5 35h51q-7 -50 -32.5 -77t-64.5 -27q-21 0 -36.5 7t-34.5 20q-15 11 -26 16t-24 5q-37 0 -43 -47h-50q8 53 32.5 79t63.5 26
q19 0 34 -7z" />
    <glyph glyph-name="zerowidthnonjoiner" unicode="&#x200c;" horiz-adv-x="0" 
d="M-23 811h47v-1041h-47v1041z" />
    <glyph glyph-name="zerowidthjoiner" unicode="&#x200d;" horiz-adv-x="0" 
d="M23 635v-865h-47v865l-69 -73l-33 33l93 93l-95 95l33 33l95 -95l96 95l32 -32l-96 -96l96 -95l-33 -33z" />
    <glyph glyph-name="endash" unicode="&#x2013;" horiz-adv-x="617" 
d="M572 405v-77h-527v77h527z" />
    <glyph glyph-name="emdash" unicode="&#x2014;" horiz-adv-x="825" 
d="M780 405v-77h-735v77h735z" />
    <glyph glyph-name="quoteleft" unicode="&#x2018;" horiz-adv-x="178" 
d="M37 675q0 56 26 84.5t76 28.5v-40q-26 0 -37.5 -14t-11.5 -42v-23h50v-86h-91q-12 53 -12 92z" />
    <glyph glyph-name="quoteright" unicode="&#x2019;" horiz-adv-x="178" 
d="M141 696q0 -56 -25.5 -84.5t-75.5 -28.5v41q26 0 37 13.5t11 41.5v23h-50v86h92q11 -48 11 -92z" />
    <glyph glyph-name="quotesinglbase" unicode="&#x201a;" horiz-adv-x="187" 
d="M140 -15q0 -52 -26 -83.5t-78 -31.5v39q25 0 36.5 13.5t11.5 42.5v9h-51v93h93q14 -44 14 -82z" />
    <glyph glyph-name="quotedblleft" unicode="&#x201c;" horiz-adv-x="314" 
d="M37 675q0 56 26 84.5t76 28.5v-40q-26 0 -37.5 -14t-11.5 -42v-23h50v-86h-91q-12 53 -12 92zM172 675q0 56 26 84.5t76 28.5v-40q-26 0 -37.5 -14t-11.5 -42v-23h50v-86h-91q-12 53 -12 92z" />
    <glyph glyph-name="quotedblright" unicode="&#x201d;" horiz-adv-x="314" 
d="M141 696q0 -56 -25.5 -84.5t-75.5 -28.5v41q26 0 37 13.5t11 41.5v23h-50v86h92q11 -48 11 -92zM277 696q0 -56 -26 -84.5t-76 -28.5v41q26 0 37 13.5t11 41.5v23h-50v86h92q12 -52 12 -92z" />
    <glyph glyph-name="quotedblbase" unicode="&#x201e;" horiz-adv-x="314" 
d="M141 -6q0 -56 -25.5 -84.5t-75.5 -28.5v41q26 0 37 13.5t11 41.5v23h-50v86h92q11 -48 11 -92zM277 -6q0 -56 -26 -84.5t-76 -28.5v41q26 0 37 13.5t11 41.5v23h-50v86h92q12 -52 12 -92z" />
    <glyph glyph-name="dagger" unicode="&#x2020;" horiz-adv-x="531" 
d="M494 477l-192 7l9 -744h-90l8 744l-192 -7v72l192 -8l-8 240h90l-9 -240l192 8v-72z" />
    <glyph glyph-name="daggerdbl" unicode="&#x2021;" horiz-adv-x="532" 
d="M303 484v-447l191 9v-73l-191 7l8 -240h-91l9 240l-192 -7v73l192 -9v447l-192 -7v72l192 -8l-9 240h91l-8 -240l191 8v-72z" />
    <glyph glyph-name="bullet" unicode="&#x2022;" horiz-adv-x="355" 
d="M91 421q36 36 87 36q52 0 87.5 -36t35.5 -88q0 -51 -35.5 -86.5t-87.5 -35.5q-51 0 -87 35.5t-36 86.5q0 52 36 88z" />
    <glyph glyph-name="ellipsis" unicode="&#x2026;" horiz-adv-x="554" 
d="M331 107v-107h-110v107h110zM522 107v-107h-110v107h110zM140 107v-107h-110v107h110z" />
    <glyph glyph-name="perthousand" unicode="&#x2030;" horiz-adv-x="991" 
d="M283.5 674.5q41.5 -40.5 41.5 -107.5t-41 -107t-105 -40t-105 40t-41 107t41 107.5t105 40.5q63 0 104.5 -40.5zM577 706l-405 -706h-90l405 706h90zM119.5 502q22.5 -25 58.5 -25q37 0 60 25t23 65t-23 65t-60 25q-36 0 -58.5 -25t-22.5 -65t22.5 -65zM585.5 246
q40.5 -40 40.5 -107t-40.5 -107.5t-104.5 -40.5q-63 0 -104.5 40.5t-41.5 107.5t41 107t105 40t104.5 -40zM917 246q41 -40 41 -107t-41.5 -107.5t-104.5 -40.5t-104.5 40.5t-41.5 107.5t41 107t105 40t105 -40zM421.5 74q22.5 -25 59.5 -25q36 0 58.5 25t22.5 65t-22.5 65
t-58.5 25q-37 0 -59.5 -25t-22.5 -65t22.5 -65zM752.5 74q22.5 -25 58.5 -25q37 0 60 25t23 65t-23 65t-60 25q-36 0 -58.5 -25t-22.5 -65t22.5 -65z" />
    <glyph glyph-name="guilsinglleft" unicode="&#x2039;" horiz-adv-x="280" 
d="M141 120l-96 175l96 175h89l-98 -175l98 -175h-89z" />
    <glyph glyph-name="guilsinglright" unicode="&#x203a;" horiz-adv-x="280" 
d="M149 295l-99 175h90l95 -175l-95 -175h-90z" />
    <glyph glyph-name="fraction" unicode="&#x2044;" horiz-adv-x="331" 
d="M409 706l-405 -706h-91l405 706h91z" />
    <glyph glyph-name="rupee" unicode="&#x20a8;" horiz-adv-x="1075" 
d="M497 356.5q-48 -52.5 -139 -65.5l192 -291h-103l-184 288h-99v-288h-91v705h232q120 0 180 -57.5t60 -152.5q0 -86 -48 -138.5zM164 354h133q155 0 155 136t-155 136h-133v-272zM710 352.5q19 -17.5 46.5 -27t77.5 -20.5q63 -14 101.5 -28.5t66 -45.5t27.5 -84
q0 -67 -50 -110.5t-135 -43.5q-99 0 -162 47t-75 131h90q5 -48 43.5 -78.5t102.5 -30.5q49 0 75.5 24.5t26.5 62.5q0 31 -19.5 49.5t-48 28.5t-78.5 21q-61 13 -99 27.5t-64.5 44.5t-26.5 82q0 69 51.5 111.5t140.5 42.5q96 0 153.5 -48.5t69.5 -130.5h-90q-6 48 -41 78.5
t-93 30.5q-50 0 -79.5 -24t-29.5 -63q0 -29 19 -46.5z" />
    <glyph glyph-name="Euro" unicode="&#x20ac;" horiz-adv-x="820" 
d="M588 119.5q60 41.5 87 111.5h96q-32 -110 -116 -173.5t-213 -63.5q-123 0 -210 69.5t-114 186.5h-100v47h91q-3 27 -3 55q0 16 2 46h-90v47h97q17 80 62 140.5t113.5 93.5t151.5 33q129 0 213 -63.5t116 -173.5h-96q-27 70 -87 111.5t-147 41.5q-83 0 -145 -48.5
t-84 -134.5h244v-47h-253q-3 -22 -3 -46q0 -32 4 -55h252v-47h-242q25 -81 85.5 -126.5t141.5 -45.5q87 0 147 41.5z" />
    <glyph glyph-name="indianrupee" unicode="&#x20b9;" horiz-adv-x="640" 
d="M458 642v-118h129v-55h-131q-7 -66 -36 -105t-88 -57.5t-158 -18.5v-90q0 -67 29 -102.5t89 -35.5q113 0 113 134h86q-2 -97 -52.5 -150.5t-142.5 -53.5q-102 0 -155 55.5t-53 161.5v143q116 0 173 9t80.5 33.5t28.5 76.5h-317v55h319v118h-319v63h534v-63h-129z" />
    <glyph glyph-name="uni20BA" unicode="&#x20ba;" horiz-adv-x="787" 
d="M741 417q0 -219 -87 -326.5t-276 -107.5q-75 0 -170 19v248l-163 -38v59l163 38v108l-163 -40v57l163 40v233h92v-210l181 45v-59l-181 -44v-108l182 43v-59l-182 -43v-196q35 -8 77 -8q144 0 208 89.5t64 259.5h92z" />
    <glyph glyph-name="uni20BD" unicode="&#x20bd;" horiz-adv-x="631" 
d="M224 298v-103h217v-71h-217v-124h-91v124h-88v71h88v103h-88v73h88v334h224q121 0 181 -54.5t60 -149.5q0 -98 -61.5 -150.5t-179.5 -52.5h-133zM224 371h128q153 0 153 131q0 132 -153 132h-128v-263z" />
    <glyph glyph-name="uni2113" unicode="&#x2113;" horiz-adv-x="242" 
d="M164 740v-740h-91v740h91z" />
    <glyph glyph-name="trademark" unicode="&#x2122;" horiz-adv-x="781" 
d="M30 705h264v-58h-98v-293h-67v293h-99v58zM744 705v-351h-63l-2 256l-113 -256h-49l-114 265v-265h-60v351h88l112 -272l120 272h81z" />
    <glyph glyph-name="uni2126" unicode="&#x2126;" horiz-adv-x="793" 
d="M708.5 188q-40.5 -77 -120.5 -117h148v-71h-274v75q88 24 141 97t53 181q0 83 -33.5 146t-92.5 97t-133 34q-75 0 -134.5 -35t-93 -98t-33.5 -144q1 -107 54.5 -180.5t140.5 -97.5v-75h-275v71h149q-79 40 -120 117t-41 176q0 104 46.5 184t127 123t179.5 43
q98 0 178 -43.5t127 -123t47 -183.5q0 -99 -40.5 -176z" />
    <glyph glyph-name="estimated" unicode="&#x212e;" horiz-adv-x="761" 
d="M212.5 32.5q-77.5 39.5 -121.5 116t-44 182.5q0 104 39 188t114.5 132.5t179.5 48.5q103 0 179 -45t115.5 -119.5t39.5 -159.5v-61h-532v-167q39 -48 88.5 -71t118.5 -23q72 0 131 31.5t125 95.5l41 -44q-134 -144 -297 -144q-99 0 -176.5 39.5zM570 555q-32 41 -80.5 63
t-109.5 22q-63 0 -113.5 -23.5t-84.5 -71.5v-166h388v176z" />
    <glyph glyph-name="partialdiff" unicode="&#x2202;" horiz-adv-x="570" 
d="M448 411q-2 131 -42 202.5t-137 71.5q-31 0 -73 -10v51q52 14 102 14q113 0 173 -81t60 -246q0 -130 -35 -225t-100.5 -146.5t-154.5 -51.5q-57 0 -103 26t-73 78t-27 129q0 90 32 166t91.5 121t138.5 45q129 0 148 -144zM214.5 444.5q-40.5 -33.5 -62 -91.5t-21.5 -130
q0 -76 33 -114t84 -38q55 0 96 34.5t62.5 92.5t21.5 128q0 78 -31.5 115t-88.5 37q-53 0 -93.5 -33.5z" />
    <glyph glyph-name="uni2206" unicode="&#x2206;" horiz-adv-x="681" 
d="M378 693l283 -622v-71h-641v71l282 622h76zM114 71h453l-227 518z" />
    <glyph glyph-name="product" unicode="&#x220f;" horiz-adv-x="739" 
d="M693 706v-70h-79v-636h-92v636h-306v-636h-91v636h-80v70h648z" />
    <glyph glyph-name="summation" unicode="&#x2211;" horiz-adv-x="457" 
d="M449 622h-333l267 -268v-72l-268 -281h334v-71h-409v105l257 280l-257 273v105h409v-71z" />
    <glyph glyph-name="minus" unicode="&#x2212;" horiz-adv-x="466" 
d="M433 405v-77h-400v77h400z" />
    <glyph glyph-name="uni2215" unicode="&#x2215;" horiz-adv-x="373" 
d="M369 942l-274 -1113h-88l273 1113h89z" />
    <glyph glyph-name="uni2219" unicode="&#x2219;" horiz-adv-x="182" 
d="M145 392v-107h-110v107h110z" />
    <glyph glyph-name="radical" unicode="&#x221a;" horiz-adv-x="788" 
d="M765 869l-490 -913h-40l-125 220l-66 -37l-28 47l146 83l116 -206l430 806h57z" />
    <glyph glyph-name="infinity" unicode="&#x221e;" horiz-adv-x="671" 
d="M629.5 457.5q41.5 -38.5 41.5 -109.5q0 -69 -44 -109t-111 -40q-57 0 -98.5 26.5t-78.5 72.5q-27 -44 -68 -71.5t-94 -27.5q-72 0 -114 39t-42 109q0 69 44 109t111 40q58 0 96.5 -27.5t76.5 -78.5q27 46 69 76t97 30q73 0 114.5 -38.5zM304 345q-33 44 -59.5 66.5
t-61.5 22.5q-41 0 -64.5 -24t-23.5 -63t22.5 -62t63.5 -23q71 0 123 83zM573.5 285q23.5 24 23.5 63t-22.5 62t-63.5 23q-38 0 -70 -23.5t-57 -66.5q30 -40 58.5 -61t66.5 -21q41 0 64.5 24z" />
    <glyph glyph-name="integral" unicode="&#x222b;" horiz-adv-x="262" 
d="M182 886q39 32 106 32h21l-8 -79h-21q-23 0 -36.5 -12.5t-17.5 -43.5l-92 -840q-7 -74 -44 -107.5t-106 -33.5h-23l8 79h24q26 0 36 12.5t15 49.5l91 840q8 71 47 103z" />
    <glyph glyph-name="approxequal" unicode="&#x2248;" horiz-adv-x="518" 
d="M222.5 338.5q21.5 -9.5 51.5 -27.5q26 -15 42 -22.5t34 -7.5q25 0 41.5 18t21.5 49h72q-12 -74 -48.5 -112t-92.5 -38q-27 0 -49.5 9.5t-50.5 27.5q-27 16 -42.5 23t-33.5 7q-25 0 -42 -18.5t-22 -49.5h-71q13 74 49 112.5t92 38.5q27 0 48.5 -9.5zM222.5 549.5
q21.5 -9.5 51.5 -27.5q26 -15 42 -22.5t34 -7.5q25 0 41.5 18t21.5 49h72q-12 -74 -48.5 -112t-92.5 -38q-27 0 -49.5 9.5t-50.5 27.5q-27 16 -42.5 23t-33.5 7q-25 0 -42 -18.5t-22 -49.5h-71q13 74 49 112.5t92 38.5q27 0 48.5 -9.5z" />
    <glyph glyph-name="notequal" unicode="&#x2260;" horiz-adv-x="586" 
d="M368 431l-96 -130h281v-83h-343l-79 -107h-53l79 107h-124v83h185l97 130h-282v83h343l79 107h54l-79 -107h123v-83h-185z" />
    <glyph glyph-name="lessequal" unicode="&#x2264;" horiz-adv-x="428" 
d="M276 213l-243 191l243 192h115l-240 -192l240 -191h-115zM395 163v-73h-351v73h351z" />
    <glyph glyph-name="greaterequal" unicode="&#x2265;" horiz-adv-x="428" 
d="M37 213l240 191l-240 192h114l244 -192l-244 -191h-114zM33 163h350v-73h-350v73z" />
    <glyph glyph-name="lozenge" unicode="&#x25ca;" horiz-adv-x="554" 
d="M518 350l-241 -241l-241 241l242 241zM134 350l143 -144l144 144l-143 144z" />
    <glyph glyph-name="dottedcircle" unicode="&#x25cc;" horiz-adv-x="651" 
d="M270 467.5q-12 11.5 -12 30.5t12 30.5t31 11.5t31 -11.5t12 -30.5t-12 -30.5t-31 -11.5t-31 11.5zM391 452.5q-12 11.5 -12 30.5t12 30.5t31 11.5t31 -11.5t12 -30.5t-12 -30.5t-31 -11.5t-31 11.5zM153 425.5q-12 11.5 -12 30.5t12 30.5t31 11.5t31 -11.5t12 -30.5
t-12 -30.5t-31 -11.5t-31 11.5zM483 378.5q-12 11.5 -12 30.5t12 30.5t31 11.5t31 -11.5t12 -30.5t-12 -30.5t-31 -11.5t-31 11.5zM77 326.5q-12 11.5 -12 30.5t12 30.5t31 11.5t31 -11.5t12 -30.5t-12 -30.5t-31 -11.5t-31 11.5zM527 264.5q-12 11.5 -12 30.5t12 30.5
t31 11.5t31 -11.5t12 -30.5t-12 -30.5t-31 -11.5t-31 11.5zM62 205.5q-12 11.5 -12 30.5t12 30.5t31 11.5t31 -11.5t12 -30.5t-12 -30.5t-31 -11.5t-31 11.5zM517 144.5q-12 11.5 -12 30.5t12 30.5t31 11.5t31 -11.5t12 -30.5t-12 -30.5t-31 -11.5t-31 11.5zM107 92.5
q-12 11.5 -12 30.5t12 30.5t31 11.5t31 -11.5t12 -30.5t-12 -30.5t-31 -11.5t-31 11.5zM444 48.5q-12 11.5 -12 30.5t12 30.5t31 11.5t31 -11.5t12 -30.5t-12 -30.5t-31 -11.5t-31 11.5zM205 16.5q-12 11.5 -12 30.5t12 30.5t31 11.5t31 -11.5t12 -30.5t-12 -30.5t-31 -11.5
t-31 11.5zM329 2.5q-12 11.5 -12 30.5t12 30.5t31 11.5t31 -11.5t12 -30.5t-12 -30.5t-31 -11.5t-31 11.5z" />
    <glyph glyph-name="fi" unicode="&#xfb01;" horiz-adv-x="571" 
d="M186 549h310v-549h-91v469h-219v-469h-91v469h-77v80h77v22q0 96 52.5 144t163.5 44v-80q-70 1 -97.5 -25t-27.5 -90v-15zM496 741q17 -15 17 -40t-17 -40t-44 -15q-28 0 -45.5 15t-17.5 40t17.5 40t45.5 15q27 0 44 -15z" />
    <glyph glyph-name="fl" unicode="&#xfb02;" horiz-adv-x="561" 
d="M214.5 654q-28.5 -26 -28.5 -90v-15h130v-80h-130v-469h-91v469h-79v80h79v22q0 197 221 188v-80q-73 1 -101.5 -25zM501 740v-740h-91v740h91z" />
    <glyph glyph-name="dvK_SSA" horiz-adv-x="801" 
d="M827 740v-70h-131v-670h-81v377h-292q-9 -4 -61.5 -30t-78 -60t-25.5 -76q0 -48 31 -79.5t83 -31.5q55 0 87 35.5t32 86.5h71v-276h-77v161q-14 -28 -49.5 -52.5t-89.5 -24.5q-78 0 -126 46t-48 119q0 53 24.5 90.5t60 61.5t92.5 53q-65 13 -108.5 57.5t-43.5 114.5
q0 54 26 94.5t71 62t99 21.5q51 0 94 -20t68.5 -58t25.5 -90q0 -46 -19 -80.5t-53 -62.5h206v301h212zM215.5 476q42.5 -34 109.5 -36q41 25 63 55t22 71q0 49 -34 80t-85 31q-50 0 -84 -29t-34 -81q0 -57 42.5 -91z" />
    <glyph glyph-name="dvJ_NYA" horiz-adv-x="806" 
d="M832 740v-70h-132v-670h-82v457h-209q45 -23 71.5 -64.5t26.5 -99.5q0 -55 -24 -97t-66.5 -65t-96.5 -23q-59 0 -103.5 24t-66.5 62v-159h-82v273h78q6 -62 49 -96.5t102 -34.5q62 0 98 38t36 96q0 69 -47.5 107.5t-120.5 38.5h-20v68h375v145h-644v70h858z" />
    <glyph glyph-name="dvK" horiz-adv-x="738" 
d="M543 670v-216q21 48 65 76.5t108 28.5q60 0 108 -29t74.5 -81t26.5 -119h-85q0 71 -42 114t-105 43q-75 0 -112.5 -49.5t-37.5 -116.5v-321h-80v202q-23 -48 -69 -76.5t-111 -28.5q-62 0 -110.5 28.5t-75.5 81.5t-27 123q0 68 27.5 120t76.5 80.5t112 28.5q65 0 110 -28
t67 -74v213h-489v70h951v-70h-382zM394 191.5q35 23.5 52 60.5t17 75v1q0 40 -16.5 76.5t-51.5 59.5t-86 23q-66 0 -110.5 -42.5t-44.5 -114.5q0 -75 43 -118.5t111 -43.5q51 0 86 23.5z" />
    <glyph glyph-name="dvKH" horiz-adv-x="675" 
d="M296 386q-49 -48 -130 -49v-102q0 -75 45.5 -120.5t123.5 -45.5q57 0 96 27.5t60 70.5q-44 26 -68.5 70.5t-24.5 102.5q0 94 59.5 149t156.5 55t156.5 -55t59.5 -149q0 -63 -28 -109t-77 -70.5t-111 -24.5q-29 0 -56 6q-30 -65 -87.5 -105t-137.5 -40q-114 0 -181.5 65.5
t-67.5 180.5v155h35q66 0 104 33.5t38 117.5v121h-287v70h856v-70h-485v-131q0 -105 -49 -153zM511 442q-39 -38 -39 -102t39 -102t103 -38q65 0 103.5 38t38.5 102t-38.5 102t-103.5 38q-64 0 -103 -38z" />
    <glyph glyph-name="dvG" horiz-adv-x="480" 
d="M506 670h-127v-271q0 -78 -40.5 -126.5t-124.5 -48.5q-80 0 -123 47t-43 124v31h81v-32q0 -42 20 -70t63 -28q46 0 64.5 28.5t18.5 71.5v274h-321v70h532v-70z" />
    <glyph glyph-name="dvGH" horiz-adv-x="422" 
d="M183 670v-73q0 -60 32 -90t104 -30h47v-69h-53q-73 0 -109.5 -31t-36.5 -81q0 -60 43.5 -90.5t114.5 -30.5q57 0 102 24t70 66t25 95h71q0 -71 -33 -129t-94 -91.5t-141 -33.5q-113 0 -177.5 46.5t-64.5 135.5q0 63 38.5 103t94.5 49v3q-53 9 -85 46t-32 105v76h-125v70
h619v-70h-410z" />
    <glyph glyph-name="dvNG" horiz-adv-x="660" 
d="M686 740v-70h-219v-182h-177q-51 0 -85.5 -18t-34.5 -65q0 -43 29.5 -62.5t76.5 -19.5h45q87 0 146 -40t59 -129q0 -76 -55 -122t-156 -46q-111 0 -177 52.5t-68 140.5h83q1 -58 42.5 -93.5t117.5 -35.5q65 0 99.5 29t34.5 75q0 58 -39.5 83t-100.5 25h-41
q-74 0 -127 34.5t-53 111.5q0 73 52 107t129 34h119v121h-412v70h712zM625 430q15 -15 15 -37t-15 -36.5t-37 -14.5t-37 14.5t-15 36.5t15 37t37 15t37 -15zM276 -94h83l124 -199h-86z" />
    <glyph glyph-name="dvC" horiz-adv-x="455" 
d="M618 670h-644v70h644v-70zM588.5 222q-30.5 -57 -87.5 -90t-132 -33q-64 0 -116 23.5t-81.5 68.5t-29.5 109q0 53 23.5 95t66.5 66h-182v67h363v-67h-35q-71 0 -114.5 -41.5t-43.5 -106.5q0 -66 44.5 -104.5t109.5 -38.5q50 0 89.5 23.5t61 64.5t21.5 91h72
q1 -70 -29.5 -127z" />
    <glyph glyph-name="dvCH" horiz-adv-x="817" 
d="M180 670v-102q0 -60 31 -90.5t100 -30.5h22v-67h-20q-77 0 -116 -35.5t-39 -90.5q0 -75 63.5 -115t176.5 -40q88 0 155.5 29.5t105 84.5t37.5 131q0 68 -32.5 105.5t-77.5 37.5q-42 0 -73.5 -28.5t-31.5 -86.5q0 -40 16 -93h-70q-17 49 -17 101q0 87 51 129t125 42
q52 0 94 -24t66.5 -71t24.5 -115q0 -96 -46.5 -167t-131 -109t-195.5 -38q-148 0 -236.5 56.5t-88.5 163.5q0 68 38.5 110t100.5 55v2q-52 9 -84 46t-32 105v105h-122v70h870v-70h-664z" />
    <glyph glyph-name="dvJ" horiz-adv-x="545" 
d="M694 740v-70h-720v70h720zM694 427h-232v-94q0 -90 -52.5 -146t-142.5 -56t-141 55.5t-51 146.5v166h84v-165q0 -59 29 -94.5t80 -35.5q52 0 82.5 35.5t30.5 94.5v165h313v-72z" />
    <glyph glyph-name="dvJH" horiz-adv-x="569" 
d="M201 470q-35 -18 -35 -65q0 -43 30 -62.5t79 -19.5h44h364v-64l-210 1q49 -42 49 -116q0 -66 -44.5 -108.5t-127.5 -42.5q-71 0 -111.5 27t-58.5 57v-154h-79v248h74q7 -50 46 -82.5t106 -32.5q58 0 88 28t30 70q0 51 -36 79.5t-105 28.5q-35 0 -53 1q-71 2 -120 37.5
t-49 105.5q0 75 52.5 109.5t130.5 34.5h119v120h-410v70h709v-70h-218v-182h-177q-52 0 -87 -18z" />
    <glyph glyph-name="dvNY" horiz-adv-x="543" 
d="M665 740v-70h-691v70h691zM444 505q59 -55 71 -141h150v-71h-150q-9 -90 -68.5 -147t-156.5 -57q-63 0 -110.5 23.5t-75 63t-34.5 87.5h79q12 -43 48 -72.5t94 -29.5q72 0 111 47t39 118q0 68 -39 115t-111 47q-60 0 -96 -30t-46 -73h-79q10 75 67 125t153 50
q95 0 154 -55z" />
    <glyph glyph-name="dvTT" horiz-adv-x="650" 
d="M212 434.5q-59 -48.5 -59 -139.5q0 -52 24 -93t66.5 -64t95.5 -23q54 0 96.5 24t66 66.5t23.5 96.5h80q0 -76 -33 -135t-93 -92t-139 -33q-78 0 -139.5 32t-96 89.5t-34.5 131.5q0 83 36.5 141t101.5 88t151 30h23v116h-408v70h703v-70h-213v-187h-101q-92 0 -151 -48.5z
M301 -37h83l124 -199h-86z" />
    <glyph glyph-name="dvTTH" horiz-adv-x="676" 
d="M378 670v-122q65 -8 116.5 -40.5t81.5 -86t30 -122.5q0 -74 -35 -131.5t-96 -89t-137 -31.5t-137 31.5t-96 88.5t-35 132q0 69 29.5 122t81 85.5t115.5 40.5v123h-322v70h728v-70h-324zM499.5 392q-23.5 41 -66 64t-95.5 23t-95.5 -23t-66 -64t-23.5 -93t23.5 -93.5
t66 -64.5t95.5 -23t95.5 23t66 64.5t23.5 93.5t-23.5 93zM300 -33h83l124 -199h-86z" />
    <glyph glyph-name="dvDD" horiz-adv-x="574" 
d="M204.5 470q-34.5 -18 -34.5 -65q0 -43 29.5 -62.5t76.5 -19.5h45q87 0 146 -40t59 -129q0 -76 -55 -122t-156 -46q-111 0 -177 52.5t-68 140.5h83q1 -58 42.5 -93.5t117.5 -35.5q65 0 99.5 29t34.5 75q0 58 -39.5 83t-100.5 25h-41q-74 0 -127 34.5t-53 111.5
q0 73 52 107t129 34h114v121h-407v70h627v-70h-139v-182h-172q-51 0 -85.5 -18zM272 -94h83l124 -199h-86z" />
    <glyph glyph-name="dvDDH" horiz-adv-x="641" 
d="M216.5 442.5q-65.5 -55.5 -65.5 -161.5q0 -61 27 -109t77.5 -75t116.5 -27q73 0 120 36.5t47 96.5q0 45 -28 74t-71 29q-38 0 -64.5 -24.5t-26.5 -63.5q0 -9 2 -19h-62q-3 27 -3 30q0 64 44.5 101t112.5 37q77 0 123 -45.5t46 -118.5q0 -58 -29.5 -102.5t-83.5 -68.5
t-128 -24q-86 0 -154.5 34t-107.5 96.5t-39 145.5q0 89 38 150.5t104.5 92.5t151.5 31h40v112h-430v70h693v-70h-184v-172h-95q-106 0 -171.5 -55.5zM311 -72h83l124 -199h-86z" />
    <glyph glyph-name="dvNN" horiz-adv-x="564" 
d="M591 670h-119v-287q0 -90 -50 -145t-141 -55q-90 0 -140 55.5t-50 144.5v287h-117v70h617v-70zM390 670h-217v-294q0 -55 29.5 -88.5t79.5 -33.5q51 0 79.5 33.5t28.5 88.5v294z" />
    <glyph glyph-name="dvT" horiz-adv-x="393" 
d="M-26 740h570v-70h-570v70zM359 426q-96 0 -150.5 -45t-54.5 -133q0 -85 48.5 -132.5t138.5 -47.5h22v-66h-33q-119 0 -189.5 63.5t-70.5 183.5q0 125 77.5 187t207.5 62h189v-72h-185z" />
    <glyph glyph-name="dvTH" horiz-adv-x="472" 
d="M650 352q0 -76 -37.5 -133.5t-103 -88.5t-146.5 -31q-133 0 -208.5 72.5t-75.5 200.5q0 25 3 52h98q206 0 206 142q0 48 -28.5 79.5t-78.5 31.5q-53 0 -82.5 -31.5t-29.5 -84.5q0 -15 4 -43h-76q-4 30 -4 46q0 86 52.5 135.5t136.5 49.5q55 0 97 -23.5t65 -65.5t23 -96
q0 -100 -69.5 -150.5t-185.5 -50.5h-50q-1 -88 51 -141t151 -53q95 0 155 49.5t60 133.5h73z" />
    <glyph glyph-name="dvD" horiz-adv-x="609" 
d="M208 445q-53 -43 -53 -122q0 -71 42.5 -114t114.5 -43q35 0 67.5 15t53.5 45.5t21 75.5h77v-318h-82v192q-21 -35 -63.5 -56t-95.5 -21q-64 0 -114 27t-78 78t-28 121q0 76 35 129t95 79.5t135 26.5h73v110h-434v70h662l-1 -70h-143v-182h-149q-82 0 -135 -43zM449 -96
h83l124 -199h-86z" />
    <glyph glyph-name="dvDH" horiz-adv-x="428" 
d="M152.5 142q-64.5 45 -64.5 130q0 62 36.5 99.5t85.5 45.5v3q-54 13 -91 54t-37 110q0 73 47 119t123 46q77 0 121.5 -44t44.5 -115q0 -22 -1 -33h-64l1 24q0 42 -26.5 69.5t-72.5 27.5q-47 0 -74 -29t-27 -74q0 -56 41.5 -88t110.5 -32h57v-69h-54q-66 0 -101 -29
t-35 -77q0 -56 44.5 -84.5t110.5 -28.5q92 0 146 45.5t54 118.5h73q0 -69 -34 -122t-97.5 -82.5t-148.5 -29.5q-104 0 -168.5 45z" />
    <glyph glyph-name="dvN" horiz-adv-x="509" 
d="M662 740v-70h-688v70h688zM90.5 414q27.5 44 75 67t107.5 23h389v-70h-256q25 -23 39.5 -57t14.5 -76q0 -56 -25.5 -98t-69.5 -64t-99 -22q-57 0 -103.5 24t-73 67.5t-26.5 101.5q0 60 27.5 104zM357 222.5q35 34.5 35 88.5q0 53 -35 88t-90 35q-56 0 -92 -34.5
t-36 -89.5q0 -54 35.5 -88t92.5 -34q55 0 90 34.5z" />
    <glyph glyph-name="dvP" horiz-adv-x="366" 
d="M168 670v-225q0 -84 37.5 -130.5t114.5 -46.5q69 0 108 44.5t39 110.5h69q0 -65 -26.5 -116.5t-76.5 -80.5t-119 -29q-111 0 -170 66.5t-59 181.5v225h-111v70h562v-70h-368z" />
    <glyph glyph-name="dvPH" horiz-adv-x="737" 
d="M531 670v-216q22 48 67 76.5t110 28.5q99 0 153.5 -62t54.5 -167h-84q0 73 -38.5 115t-109.5 42q-76 0 -114.5 -51t-38.5 -123v-313h-83v281q-23 -40 -63.5 -62t-94.5 -22q-100 0 -152.5 65.5t-52.5 178.5v229h-111v70h942v-70h-385zM448 670h-280v-229q0 -82 35 -127.5
t106 -45.5q65 0 102 43.5t37 107.5v251z" />
    <glyph glyph-name="dvB" horiz-adv-x="414" 
d="M573 740v-70h-599v70h599zM459.5 534.5q56.5 -34.5 84 -89t27.5 -114.5q0 -65 -29 -120t-85.5 -87.5t-133.5 -32.5q-73 0 -130.5 30t-90 84.5t-32.5 124.5t31.5 124.5t88.5 84.5t131 30q82 0 138.5 -34.5zM505 329q0 46 -21 87.5t-62 67.5t-99 26q-73 0 -124 -45
l274 -240q32 45 32 104zM165.5 233.5q25.5 -40.5 67.5 -62t92 -21.5q75 0 123 45l-276 241q-32 -46 -32 -108q0 -54 25.5 -94.5z" />
    <glyph glyph-name="dvBH" horiz-adv-x="510" 
d="M640 385h-198v-77q0 -100 -47 -153.5t-134 -53.5q-83 0 -134 48.5t-51 128.5q0 82 54.5 129t139.5 47h94v94q0 61 -22.5 95t-69.5 34q-41 0 -66 -28t-25 -77q0 -17 3 -38h-83q-4 26 -4 41q0 79 46 126.5t126 47.5q89 0 131 -57t42 -157v-81h198v-69zM364 385h-92
q-52 0 -85 -29t-33 -78q0 -48 30 -77t76 -29q49 0 76.5 34.5t27.5 96.5v82z" />
    <glyph glyph-name="dvM" horiz-adv-x="505" 
d="M414 670v-216h222v-69h-222v-77q0 -100 -47 -153.5t-134 -53.5q-84 0 -134.5 48.5t-50.5 128.5q0 83 54 129.5t139 46.5h95v216h-362v70h662v-70h-222zM336 385h-93q-52 0 -84.5 -29t-32.5 -78q0 -48 29.5 -77t75.5 -29q49 0 77 34.5t28 96.5v82z" />
    <glyph glyph-name="dvY" horiz-adv-x="445" 
d="M590.5 232.5q-34.5 -56.5 -97.5 -89t-144 -32.5q-132 0 -206 75t-74 207q0 25 3 47h14q89 0 134 37.5t45 123.5v69h-291v70h651v-70h-278v-82q0 -187 -196 -195v-7q0 -96 54.5 -150t146.5 -54q55 0 100 22.5t71 63t26 92.5h76q0 -71 -34.5 -127.5z" />
    <glyph glyph-name="dvR" horiz-adv-x="535" 
d="M165 339v-137q0 -63 29 -101t85 -38q53 0 83.5 35.5t30.5 93.5v19h80v-17q0 -93 -51.5 -148t-141.5 -55q-95 0 -146.5 59.5t-51.5 155.5v201h106q171 0 171 168v95h-385v70h588v-70h-120v-95q0 -114 -56 -175t-170 -61h-51zM232 -91h83l124 -199h-86z" />
    <glyph glyph-name="dvL" horiz-adv-x="665" 
d="M-26 740h860v-70h-860v70zM513.5 501.5q43.5 41.5 119.5 41.5q59 0 104.5 -28t71 -80t25.5 -121l-84 -1q0 68 -33.5 112t-95.5 44q-66 0 -100 -49.5t-34 -133.5v-15h-70v15q0 83 -32.5 133t-95.5 50q-65 0 -100 -43.5t-35 -112.5q0 -77 41.5 -124t117.5 -47q7 0 29 2v-73
q-26 -2 -34 -2q-76 0 -130 31.5t-81 87t-27 126.5q0 70 26 122t73.5 79.5t108.5 27.5q73 0 115 -42t58 -103h2q17 62 60.5 103.5z" />
    <glyph glyph-name="dvV" horiz-adv-x="394" 
d="M-26 740h595v-70h-595v70zM188.5 124.5q-56.5 29.5 -87.5 83t-31 124.5q0 68 31.5 120.5t88 81.5t129.5 29q83 0 139.5 -34t83.5 -88t27 -113t-27.5 -112t-84 -87t-138.5 -34q-74 0 -130.5 29.5zM414 186.5q38 24.5 56.5 62.5t18.5 79q0 43 -18.5 81.5t-56 62.5t-93.5 24
q-48 0 -87 -20t-61.5 -57.5t-22.5 -87.5q0 -78 48 -123.5t123 -45.5q55 0 93 24.5z" />
    <glyph glyph-name="dvSH" horiz-adv-x="538" 
d="M501 211q1 -6 1 -14q0 -95 -53.5 -150t-145.5 -55q-102 0 -158 60.5t-56 162.5v176h147q85 0 138.5 38.5t53.5 113.5q0 61 -33.5 97t-90.5 36q-56 0 -89.5 -35.5t-33.5 -96.5q0 -21 3 -44h-83q-4 32 -4 46q0 91 56 147t151 56t152 -55.5t57 -155.5q0 -105 -69.5 -161.5
t-179.5 -56.5h-90v-110q0 -66 31.5 -106t95.5 -40q55 0 87 36.5t32 97.5v13h81z" />
    <glyph glyph-name="dvSS" horiz-adv-x="387" 
d="M166 670v-1l376 -298q0 -43 -26.5 -84.5t-77.5 -68t-120 -26.5q-114 0 -173.5 68t-59.5 185v225h-111v70h568v-70h-376zM166 603v-160q0 -86 38.5 -133t116.5 -47q60 0 98 28.5t48 68.5z" />
    <glyph glyph-name="dvS" horiz-adv-x="524" 
d="M413 486q-16 -41 -45 -68h264v-68h-467v-147q0 -63 29.5 -101.5t86.5 -38.5q53 0 84 35.5t31 93.5v12h80q1 -7 1 -16q0 -90 -52.5 -143.5t-142.5 -53.5q-97 0 -148.5 59.5t-51.5 156.5v204h94q84 0 127.5 45t43.5 123v91h-373v70h658v-70h-203v-91q0 -52 -16 -93z" />
    <glyph glyph-name="dvH" horiz-adv-x="586" 
d="M211 473q-30 -19 -30 -61q0 -31 19 -52.5t52 -30.5q28 5 56 5q97 0 152.5 -47.5t67.5 -117.5h-80q-9 39 -45.5 68.5t-95.5 29.5q-70 0 -110.5 -43t-40.5 -108q0 -66 40 -108t111 -42q56 0 93 28.5t48 66.5h80q-7 -45 -35 -82.5t-76 -60t-110 -22.5q-73 0 -125.5 29
t-79.5 79t-27 113t28.5 112t79.5 76q-39 16 -62 47t-23 75q0 61 45 93.5t118 32.5h130v117h-417v70h638v-70h-141v-178h-183q-47 0 -77 -19zM262 -183h83l124 -199h-86z" />
    <glyph glyph-name="dvLL" horiz-adv-x="997" 
d="M-26 740h1050v-70h-1050v70zM180 123.5q-51 28.5 -80.5 79.5t-29.5 117q0 68 29.5 120t80.5 80.5t114 28.5q75 0 126.5 -37.5t76.5 -100.5h3q25 63 77 100.5t127 37.5q62 0 113.5 -28.5t81 -80.5t29.5 -120q0 -66 -29.5 -117t-81 -79.5t-114.5 -28.5q-75 0 -129.5 39.5
t-73.5 100.5h-3q-20 -62 -74 -101t-129 -39q-63 0 -114 28.5zM415 209.5q42 42.5 42 110.5q0 69 -42 113t-110 44t-111 -43.5t-43 -114.5q0 -68 43.5 -110t110.5 -42q68 0 110 42.5zM802.5 209q43.5 42 43.5 110q0 71 -43 114.5t-110 43.5q-69 0 -111 -44t-42 -113
q0 -68 42 -110.5t110 -42.5q67 0 110.5 42z" />
    <glyph glyph-name="dvK_SS" horiz-adv-x="530" 
d="M261.5 347q-52.5 -26 -78 -60t-25.5 -76q0 -48 31 -79.5t83 -31.5q55 0 87 35.5t32 86.5h71v-276h-77v161q-14 -28 -49.5 -52.5t-89.5 -24.5q-78 0 -126 46t-48 119q0 53 24.5 90.5t60 61.5t92.5 53q-65 13 -108.5 57.5t-43.5 114.5q0 54 26 94.5t71 62t99 21.5
q51 0 94 -20t68.5 -58t25.5 -90q0 -46 -19 -80.5t-53 -62.5h235v-62h-321q-9 -4 -61.5 -30zM215.5 476q42.5 -34 109.5 -36q41 25 63 55t22 71q0 49 -34 80t-85 31q-50 0 -84 -29t-34 -81q0 -57 42.5 -91z" />
    <glyph glyph-name="dvJ_NY" horiz-adv-x="535" 
d="M705 740v-70h-731v70h731zM243 525h462v-68h-296q45 -23 71.5 -64.5t26.5 -99.5q0 -55 -24 -97t-66.5 -65t-96.5 -23q-59 0 -103.5 24t-66.5 62v-159h-82v273h78q6 -62 49 -96.5t102 -34.5q62 0 98 38t36 96q0 69 -47.5 107.5t-120.5 38.5h-20v68z" />
    <glyph glyph-name="dvKx" horiz-adv-x="738" 
d="M543 670v-216q21 48 65 76.5t108 28.5q60 0 108 -29t74.5 -81t26.5 -119h-85q0 71 -42 114t-105 43q-75 0 -112.5 -49.5t-37.5 -116.5v-321h-80v202q-23 -48 -69 -76.5t-111 -28.5q-62 0 -110.5 28.5t-75.5 81.5t-27 123q0 68 27.5 120t76.5 80.5t112 28.5q65 0 110 -28
t67 -74v213h-489v70h951v-70h-382zM394 191.5q35 23.5 52 60.5t17 75v1q0 40 -16.5 76.5t-51.5 59.5t-86 23q-66 0 -110.5 -42.5t-44.5 -114.5q0 -75 43 -118.5t111 -43.5q51 0 86 23.5zM229 -78q-16 16 -16 39q0 24 16 40.5t40 16.5t40 -16.5t16 -40.5q0 -23 -16 -39
t-40 -16t-40 16z" />
    <glyph glyph-name="dvKHx" horiz-adv-x="675" 
d="M296 386q-49 -48 -130 -49v-102q0 -75 45.5 -120.5t123.5 -45.5q57 0 96 27.5t60 70.5q-44 26 -68.5 70.5t-24.5 102.5q0 94 59.5 149t156.5 55t156.5 -55t59.5 -149q0 -63 -28 -109t-77 -70.5t-111 -24.5q-29 0 -56 6q-30 -65 -87.5 -105t-137.5 -40q-114 0 -181.5 65.5
t-67.5 180.5v155h35q66 0 104 33.5t38 117.5v121h-287v70h856v-70h-485v-131q0 -105 -49 -153zM511 442q-39 -38 -39 -102t39 -102t103 -38q65 0 103.5 38t38.5 102t-38.5 102t-103.5 38q-64 0 -103 -38zM276 -177q-16 16 -16 39q0 24 16 40.5t40 16.5t40 -16.5t16 -40.5
q0 -23 -16 -39t-40 -16t-40 16z" />
    <glyph glyph-name="dvGx" horiz-adv-x="480" 
d="M506 670h-127v-271q0 -78 -40.5 -126.5t-124.5 -48.5q-80 0 -123 47t-43 124v31h81v-32q0 -42 20 -70t63 -28q46 0 64.5 28.5t18.5 71.5v274h-321v70h532v-70zM179 44q-16 16 -16 39q0 24 16 40.5t40 16.5t40 -16.5t16 -40.5q0 -23 -16 -39t-40 -16t-40 16z" />
    <glyph glyph-name="dvJx" horiz-adv-x="545" 
d="M694 740v-70h-720v70h720zM694 427h-232v-94q0 -90 -52.5 -146t-142.5 -56t-141 55.5t-51 146.5v166h84v-165q0 -59 29 -94.5t80 -35.5q52 0 82.5 35.5t30.5 94.5v165h313v-72zM231 -44q-16 16 -16 39q0 24 16 40.5t40 16.5t40 -16.5t16 -40.5q0 -23 -16 -39t-40 -16
t-40 16z" />
    <glyph glyph-name="dvPHx" horiz-adv-x="737" 
d="M531 670v-216q22 48 67 76.5t110 28.5q99 0 153.5 -62t54.5 -167h-84q0 73 -38.5 115t-109.5 42q-76 0 -114.5 -51t-38.5 -123v-313h-83v281q-23 -40 -63.5 -62t-94.5 -22q-100 0 -152.5 65.5t-52.5 178.5v229h-111v70h942v-70h-385zM448 670h-280v-229q0 -82 35 -127.5
t106 -45.5q65 0 102 43.5t37 107.5v251zM219 24q-16 16 -16 39q0 24 16 40.5t40 16.5t40 -16.5t16 -40.5q0 -23 -16 -39t-40 -16t-40 16z" />
    <glyph glyph-name="dvReph" horiz-adv-x="0" 
d="M-183 814q0 88 40.5 140.5t126.5 52.5q77 0 119.5 -46.5t40.5 -122.5h-73q1 45 -22.5 72t-63.5 27q-90 0 -90 -122v-91h-78v90z" />
    <glyph glyph-name="dvEyelash" 
d="M-26 740h392v-70h-392v70zM332 369q-32 -7 -67 -7q-96 0 -164.5 47.5t-70.5 148.5h79q1 -70 50.5 -102t117.5 -32q39 0 77 12l30 -49q-20 -11 -52 -18z" />
    <glyph glyph-name="dvRashtrasign" horiz-adv-x="0" 
d="M-105 -97l-135 146l-135 -146h-87l166 179h111l167 -179h-87z" />
    <glyph glyph-name="dvK_RA" horiz-adv-x="994" 
d="M543 670v-216q21 48 65 76.5t108 28.5q60 0 108 -29t74.5 -80.5t26.5 -117.5q0 -71 -27 -123t-74.5 -79.5t-107.5 -27.5q-37 0 -62 7v66q16 -4 42 -4q63 0 103.5 42.5t40.5 116.5q0 71 -42 114t-105 43q-74 0 -111.5 -49.5t-38.5 -116.5v-321h-80v205q-16 -33 -42 -54
l-200 -197h-92l155 150h-1q-61 0 -109.5 27.5t-76 79t-27.5 119.5t27.5 120t76.5 80.5t112 28.5q65 0 110 -28t67 -74v213h-489v70h1047v-70h-478zM440 241q23 41 23 86v1q0 40 -16.5 76.5t-51.5 59.5t-86 23q-66 0 -110.5 -42.5t-44.5 -114.5q0 -75 43 -118.5t111 -43.5
q28 0 48 7l10 9l8 -3q43 19 66 60z" />
    <glyph glyph-name="dvKH_RA" horiz-adv-x="933" 
d="M960 740v-70h-132v-670h-83v217q-21 -37 -59 -59t-91 -22q-21 0 -39 3q-23 -44 -55 -75l-202 -208h-90v5l140 139h-16q-114 0 -181.5 64.5t-67.5 178.5v155h35q66 0 104 33.5t38 117.5v121h-287v70h986zM429.5 95.5q38.5 26.5 59.5 68.5q-43 26 -67.5 73t-24.5 107
q0 59 26 105t71 71t101 25q53 0 91 -22t59 -59v206h-400v-131q0 -105 -49 -153t-130 -49v-102q0 -75 45.5 -120.5t123.5 -45.5q56 0 94.5 26.5zM685.5 221.5q30.5 20.5 45 52.5t14.5 67q0 55 -33.5 97t-100.5 42q-59 0 -99 -37t-40 -99q0 -67 39.5 -105t99.5 -38
q44 0 74.5 20.5z" />
    <glyph glyph-name="dvG_RA" horiz-adv-x="745" 
d="M772 740v-70h-132v-670h-81v251l-269 -271h-98l365 356v334h-178v-217q0 -78 -40.5 -126.5t-124.5 -48.5q-80 0 -123 46.5t-43 123.5v31h81v-31q0 -42 20 -70t63 -28q46 0 64.5 28.5t18.5 71.5v220h-321v70h798z" />
    <glyph glyph-name="dvGH_RA" horiz-adv-x="710" 
d="M737 670h-131v-670h-84v221q-13 -23 -33 -43l-231 -232h-92l170 164q-10 -1 -29 -1q-100 0 -162 46.5t-62 132.5q0 63 38.5 103t94.5 49v3q-53 9 -85 46t-32 105v76h-125v70h763v-70zM522 670h-339v-71q0 -60 32.5 -91t103.5 -31h47v-69h-53q-73 0 -109.5 -31t-36.5 -81
q0 -60 43.5 -90.5t114.5 -30.5q54 0 99 23.5t71.5 65.5t26.5 96v310z" />
    <glyph glyph-name="dvNG_RA" horiz-adv-x="660" 
d="M686 740v-70h-219v-182h-177q-51 0 -85.5 -18t-34.5 -65q0 -43 29.5 -62.5t76.5 -19.5h45q87 0 146 -40t59 -129q0 -76 -55 -122t-156 -46q-111 0 -177 52.5t-68 140.5h83q1 -58 42.5 -93.5t117.5 -35.5q65 0 99.5 29t34.5 75q0 58 -39.5 83t-100.5 25h-41
q-74 0 -127 34.5t-53 111.5q0 73 52 107t129 34h119v121h-412v70h712zM625 430q15 -15 15 -37t-15 -36.5t-37 -14.5t-37 14.5t-15 36.5t15 37t37 15t37 -15zM447 -163l-135 146l-135 -146h-87l166 179h111l167 -179h-87z" />
    <glyph glyph-name="dvC_RA" horiz-adv-x="735" 
d="M761 670h-132v-670h-83v207q-19 -33 -52 -60l-192 -193h-92l152 149h-8q-59 0 -107.5 23.5t-76.5 68t-28 105.5q0 53 23.5 95t66.5 66h-182v67h363v-67h-35q-71 0 -114.5 -41.5t-43.5 -106.5q0 -66 44.5 -104.5t109.5 -38.5q50 0 89.5 23.5t61 64.5t21.5 91v321h-572v70
h787v-70z" />
    <glyph glyph-name="dvCH_RA" horiz-adv-x="817" 
d="M625 670v-123q65 -13 105.5 -66t40.5 -140q0 -96 -46.5 -167t-131 -109t-195.5 -38q-148 0 -236.5 56.5t-88.5 163.5q0 68 38.5 110t100.5 55v2q-52 9 -84 46t-32 105v105h-122v70h870v-70h-219zM548 670h-368v-102q0 -60 31 -90.5t100 -30.5h22v-67h-20
q-77 0 -116 -35.5t-39 -90.5q0 -75 63.5 -115t176.5 -40q88 0 155.5 29.5t105 84.5t37.5 131q0 68 -32.5 105.5t-77.5 37.5q-42 0 -73.5 -28.5t-31.5 -86.5q0 -40 16 -93h-70q-17 49 -17 101q0 75 38.5 116.5t99.5 51.5v122zM559 -121l-135 146l-135 -146h-87l166 179h111
l167 -179h-87z" />
    <glyph glyph-name="dvJ_RA" horiz-adv-x="840" 
d="M867 670h-132v-670h-78v242l-261 -275h-93l352 359v107h-196v-31q0 -90 -51.5 -145.5t-140.5 -55.5q-90 0 -141 55.5t-51 145.5v100h84v-98q0 -59 29 -94.5t80 -35.5q52 0 82.5 35.5t30.5 94.5v98h274v168h-681v70h893v-70z" />
    <glyph glyph-name="dvJH_RA" horiz-adv-x="909" 
d="M936 670h-132v-670h-79v124l-172 -231h-85l257 327v22l-3 12v5l-249 1q49 -42 49 -116q0 -66 -44.5 -108.5t-127.5 -42.5q-71 0 -111.5 27t-58.5 57v-154h-79v248h74q7 -50 46 -82.5t106 -32.5q58 0 88 28t30 70q0 51 -36 79.5t-105 28.5q-35 0 -53 1q-71 2 -120 37.5
t-49 105.5q0 75 52.5 109.5t130.5 34.5h119v120h-410v70h962v-70zM722 323v347h-257v-182h-177q-52 0 -87 -18t-35 -65q0 -43 30 -62.5t79 -19.5h44h403z" />
    <glyph glyph-name="dvNY_RA" horiz-adv-x="810" 
d="M883 670h-132v-670h-81v166l-230 -245h-87l317 330v62h-154q-8 -88 -67.5 -144.5t-158.5 -56.5q-64 0 -112.5 24t-76 64t-31.5 86h79q7 -41 45 -71.5t97 -30.5q72 0 111 44t39 110q0 63 -39 106.5t-111 43.5q-60 0 -96 -30t-46 -73h-79q10 75 67 125t153 50q93 0 151 -49
t72 -127h155v286h-694v70h909v-70z" />
    <glyph glyph-name="dvTT_RA" horiz-adv-x="650" 
d="M212 434.5q-59 -48.5 -59 -139.5q0 -52 24 -93t66.5 -64t95.5 -23q54 0 96.5 24t66 66.5t23.5 96.5h80q0 -76 -33 -135t-93 -92t-139 -33q-78 0 -139.5 32t-96 89.5t-34.5 131.5q0 83 36.5 141t101.5 88t151 30h23v116h-408v70h703v-70h-213v-187h-101q-92 0 -151 -48.5z
M472 -102l-135 146l-135 -146h-87l166 179h111l167 -179h-87z" />
    <glyph glyph-name="dvTTH_RA" horiz-adv-x="677" 
d="M378 670v-122q65 -8 116.5 -40.5t81.5 -86t30 -122.5q0 -74 -35 -131.5t-96 -89t-137 -31.5t-137 31.5t-96 88.5t-35 132q0 69 29.5 122t81 85.5t115.5 40.5v123h-322v70h728v-70h-324zM499.5 392q-23.5 41 -66 64t-95.5 23t-95.5 -23t-66 -64t-23.5 -93t23.5 -93.5
t66 -64.5t95.5 -23t95.5 23t66 64.5t23.5 93.5t-23.5 93zM475 -103l-135 146l-135 -146h-87l166 179h111l167 -179h-87z" />
    <glyph glyph-name="dvDD_RA" horiz-adv-x="574" 
d="M204.5 470q-34.5 -18 -34.5 -65q0 -43 29.5 -62.5t76.5 -19.5h45q87 0 146 -40t59 -129q0 -76 -55 -122t-156 -46q-111 0 -177 52.5t-68 140.5h83q1 -58 42.5 -93.5t117.5 -35.5q65 0 99.5 29t34.5 75q0 58 -39.5 83t-100.5 25h-41q-74 0 -127 34.5t-53 111.5
q0 73 52 107t129 34h114v121h-407v70h627v-70h-139v-182h-172q-51 0 -85.5 -18zM440 -163l-135 146l-135 -146h-87l166 179h111l167 -179h-87z" />
    <glyph glyph-name="dvDDH_RA" horiz-adv-x="641" 
d="M216.5 442.5q-65.5 -55.5 -65.5 -161.5q0 -61 27 -109t77.5 -75t116.5 -27q73 0 120 36.5t47 96.5q0 45 -28 74t-71 29q-38 0 -64.5 -24.5t-26.5 -63.5q0 -9 2 -19h-62q-3 27 -3 30q0 64 44.5 101t112.5 37q77 0 123 -45.5t46 -118.5q0 -58 -29.5 -102.5t-83.5 -68.5
t-128 -24q-86 0 -154.5 34t-107.5 96.5t-39 145.5q0 89 38 150.5t104.5 92.5t151.5 31h40v112h-430v70h693v-70h-184v-172h-95q-106 0 -171.5 -55.5zM486 -141l-135 146l-135 -146h-87l166 179h111l167 -179h-87z" />
    <glyph glyph-name="dvNN_RA" horiz-adv-x="854" 
d="M881 670h-132v-670h-79v253l-271 -285h-96l364 373v329h-195v-212q0 -90 -50 -145t-141 -55q-90 0 -140 55.5t-50 144.5v212h-117v70h907v-70zM390 670h-217v-220q0 -54 29.5 -87.5t79.5 -33.5q51 0 79.5 33.5t28.5 87.5v220z" />
    <glyph glyph-name="dvT_RA" horiz-adv-x="695" 
d="M721 670h-131v-670h-81v268l-270 -268h-108v4l374 352q-21 49 -67.5 78.5t-107.5 29.5q-76 0 -126 -46.5t-50 -128.5h-83q-1 74 29 129t84.5 84t125.5 29q69 0 119 -28.5t79 -71.5v239h-534v70h747v-70z" />
    <glyph glyph-name="dvTH_RA" horiz-adv-x="766" 
d="M793 740v-70h-132v-670h-84v229q-16 -41 -56 -73h2l-277 -229h-104v5l211 169h-2q-84 0 -145 33t-94 94t-33 144q0 25 3 52h98q206 0 206 142q0 48 -28.5 79.5t-78.5 31.5q-53 0 -82.5 -31.5t-29.5 -84.5q0 -15 4 -43h-76q-4 30 -4 46q0 86 52.5 135.5t136.5 49.5
q55 0 97 -23.5t65 -65.5t23 -96q0 -100 -69.5 -150.5t-185.5 -50.5h-50q-1 -88 51 -141t151 -53q59 0 108 25.5t78 73t29 111.5v361h216z" />
    <glyph glyph-name="dvD_RA" horiz-adv-x="609" 
d="M208 445q-53 -43 -53 -122q0 -71 42.5 -114t114.5 -43q35 0 67.5 15t53.5 45.5t21 75.5h77v-318h-82v193q-12 -17 -24 -29h1l-209 -206h-92l164 160q-64 0 -113.5 26.5t-77.5 77t-28 119.5q0 76 35 129t95 79.5t135 26.5h73v110h-434v70h661v-70h-143v-182h-149
q-82 0 -135 -43z" />
    <glyph glyph-name="dvDH_RA" horiz-adv-x="712" 
d="M742 670h-130v-670h-84v220q-16 -30 -39 -52h1l-230 -232h-93l171 166q-22 -2 -33 -2q-95 0 -156 45t-61 127q0 62 36.5 99.5t85.5 45.5v3q-54 13 -91 54t-37 110q0 73 47 119t123 46q77 0 121.5 -44t44.5 -115q0 -22 -1 -33h-64l1 24q0 42 -26.5 69.5t-72.5 27.5
q-47 0 -74 -29t-27 -74q0 -56 41.5 -88t110.5 -32h57v-69h-54q-66 0 -101 -29t-35 -77q0 -55 42 -84t109 -29q58 0 104.5 26t73 72.5t26.5 105.5v369h214v-70z" />
    <glyph glyph-name="dvN_RA" horiz-adv-x="821" 
d="M848 670h-132v-670h-76v197l-252 -270h-92l340 351v156h-230q25 -23 39.5 -57t14.5 -76q0 -53 -25 -95t-69.5 -65.5t-99.5 -23.5q-57 0 -103.5 24t-73 67.5t-26.5 101.5q0 60 27.5 104t75 67t107.5 23h363v166h-662v70h874v-70zM357 222.5q35 34.5 35 88.5q0 53 -35 88
t-90 35q-56 0 -92 -34.5t-36 -89.5q0 -54 35.5 -88t92.5 -34q55 0 90 34.5z" />
    <glyph glyph-name="dvP_RA" horiz-adv-x="655" 
d="M681 670h-131v-670h-83v285q-9 -16 -30 -37l-249 -260h-92l212 213h-9q-105 0 -159.5 65.5t-54.5 178.5v225h-111v70h707v-70zM467 670h-299v-225q0 -84 37.5 -130.5t113.5 -46.5q69 0 108.5 44.5t39.5 110.5v247z" />
    <glyph glyph-name="dvPH_RA" horiz-adv-x="985" 
d="M531 670v-216q22 48 67 76.5t110 28.5q60 0 107.5 -28.5t74 -79.5t26.5 -117q0 -72 -27 -124.5t-74.5 -80t-107.5 -27.5q-35 0 -64 8v65q22 -5 45 -5q64 0 104 43t40 117q0 71 -42 114t-106 43q-76 0 -114.5 -51t-38.5 -123v-313h-83v283q-15 -25 -33 -40l-239 -255h-92
l209 213h-3q-100 0 -152.5 64.5t-52.5 175.5v229h-111v70h1038v-70h-481zM448 670h-280v-229q0 -82 35 -127.5t106 -45.5q65 0 102 43.5t37 107.5v251z" />
    <glyph glyph-name="dvB_RA" horiz-adv-x="689" 
d="M715 740v-70h-131v-670h-81v194q-16 -24 -32 -42l-208 -206h-90l158 150q-7 -1 -19 -1q-67 0 -122.5 29t-87.5 82.5t-32 123.5q0 71 31.5 125.5t86.5 84t123 29.5t116.5 -29t75.5 -77v207h-529v70h741zM202 467l275 -240q31 47 31 104q0 46 -21 87.5t-62 67.5t-99 26
q-73 0 -124 -45zM168.5 235.5q24.5 -40.5 66.5 -62t93 -21.5q75 0 123 45l-275 241q-32 -46 -32 -108q0 -54 24.5 -94.5z" />
    <glyph glyph-name="dvBH_RA" horiz-adv-x="795" 
d="M842 740v-70h-133v-670h-75v197l-270 -271h-94l360 348v115h-189v-61q0 -97 -48 -151.5t-132 -54.5q-83 0 -134 46t-51 121q0 79 54.5 123.5t139.5 44.5h95v91q0 61 -23 95t-71 34q-42 0 -67 -28t-25 -76q0 -17 3 -37h-81q-4 26 -4 41q0 78 46 125t126 47q88 0 130 -57
t42 -157v-78h189v283h212zM365 389h-95q-52 0 -84 -27t-32 -73q0 -44 30 -71t76 -27q50 0 77.5 35t27.5 97v66z" />
    <glyph glyph-name="dvM_RA" horiz-adv-x="786" 
d="M813 670h-132v-670h-76v198l-271 -272h-94l361 349v134h-188v-75q0 -97 -47.5 -151.5t-133.5 -54.5q-82 0 -133 48t-51 126q0 82 54 128.5t139 46.5h96v193h-363v70h839v-70zM601 670h-188v-193h188v193zM337 409h-95q-52 0 -84.5 -29t-32.5 -78q0 -47 30 -76t76 -29
q51 0 78.5 35t27.5 98v79z" />
    <glyph glyph-name="dvY_RA" horiz-adv-x="737" 
d="M764 670h-132v-670h-83v220q-15 -27 -43 -51l-277 -229h-102v5l210 168h-4q-125 0 -194.5 75.5t-69.5 204.5q0 25 3 47h14q89 0 134 37.5t45 123.5v69h-291v70h790v-70zM549 670h-202v-82q0 -187 -196 -195v-7q0 -95 52.5 -149.5t146.5 -54.5q56 0 101.5 23.5t71.5 66.5
t26 98v300z" />
    <glyph glyph-name="dvL_RA" horiz-adv-x="904" 
d="M684 670v-133q69 -17 109.5 -75.5t40.5 -147.5q0 -71 -27 -126.5t-81 -87t-130 -31.5q-8 0 -34 2v73q20 -2 29 -2q75 0 117 47t42 124q0 68 -33.5 112t-95.5 44q-66 0 -100 -49.5t-34 -133.5v-15h-70v15q0 83 -32.5 133t-95.5 50q-65 0 -100 -43.5t-35 -112.5
q0 -77 41.5 -124t117.5 -47q7 0 29 2v-73q-26 -2 -34 -2q-76 0 -130 31.5t-81 87t-27 126.5q0 70 26 122t73.5 79.5t108.5 27.5q73 0 115 -42t58 -103h2q15 55 51 94.5t98 48.5v129h-628v70h956v-70h-246zM752 -163l-135 146l-135 -146h-87l166 179h111l167 -179h-87z" />
    <glyph glyph-name="dvV_RA" horiz-adv-x="674" 
d="M701 740v-70h-132v-670h-81v204q-18 -34 -50 -60l-192 -188h-92l152 144h-8q-67 0 -119 28.5t-80.5 81t-28.5 122.5q0 68 29 120.5t81 81.5t118 29q68 0 116.5 -28.5t73.5 -76.5v212h-514v70h727zM413 187.5q38 24.5 56.5 62.5t18.5 78q0 42 -18.5 80.5t-56.5 62.5
t-94 24q-47 0 -85 -20t-60 -57.5t-22 -86.5q0 -77 47 -122.5t120 -45.5q56 0 94 24.5z" />
    <glyph glyph-name="dvSH_RA" horiz-adv-x="806" 
d="M832 740v-70h-131v-670h-82v163l-78 43l-225 -211h-99v7l262 237l-161 87l-178 -136h-95v11l208 160q-73 42 -110.5 92t-37.5 115q0 50 23.5 91.5t67 65.5t101.5 24q59 0 103.5 -23.5t68 -64t23.5 -88.5q0 -61 -27.5 -107t-89.5 -95l244 -132v501h213zM311 406l8 6
q47 35 72 70.5t25 83.5q0 46 -32 79.5t-85 33.5q-49 0 -81.5 -31.5t-34.5 -75.5q-2 -50 23.5 -86.5t79.5 -66.5z" />
    <glyph glyph-name="dvSS_RA" horiz-adv-x="662" 
d="M688 670h-132v-670h-82v280q-15 -25 -39 -45l-247 -247h-92l214 206h-6q-107 0 -163 67.5t-56 183.5v225h-111v70h714v-70zM474 670h-308v-1l308 -248v249zM204.5 310.5q38.5 -47.5 115.5 -47.5q55 0 92 26.5t52 71.5l-298 241v-159q0 -85 38.5 -132.5z" />
    <glyph glyph-name="dvS_RA" horiz-adv-x="877" 
d="M903 670h-132v-670h-73v219l-203 -276h-82l278 360v50h-529v-170q0 -54 25.5 -87t76.5 -33q44 0 70 33.5t26 88.5v12h73q1 -7 1 -16q0 -88 -45 -139t-124 -51q-88 0 -135.5 54t-47.5 142v224h94q84 0 127.5 45t43.5 123v91h-373v70h929v-70zM691 670h-262v-91
q0 -52 -16 -93t-45 -68h323v252z" />
    <glyph glyph-name="dvH_RA" horiz-adv-x="586" 
d="M211 473q-30 -19 -30 -61q0 -32 19.5 -53t53.5 -31q27 5 51 5q79 0 133.5 -37t71.5 -92l-112 -115h-78l115 116q-18 27 -50 45t-77 18q-71 0 -113 -48t-42 -119t41.5 -117.5t115.5 -46.5q58 0 95 28.5t49 66.5h74q-7 -44 -35 -81t-76 -59t-110 -22q-73 0 -125.5 30.5
t-79.5 84t-27 119.5t29 118.5t81 81.5q-39 16 -63 47t-24 76q0 61 45 93.5t118 32.5h130v117h-417v70h638v-70h-141v-178h-183q-47 0 -77 -19z" />
    <glyph glyph-name="dvLL_RA" horiz-adv-x="997" 
d="M755 670v-126q77 -16 125 -76.5t48 -147.5q0 -78 -41 -135t-109 -78l150 -161h-87l-135 146l-135 -146h-87l148 160q-48 15 -82.5 49.5t-49.5 79.5h-3q-20 -62 -74 -101t-129 -39q-63 0 -114 28.5t-80.5 79.5t-29.5 117q0 68 29.5 120t80.5 80.5t114 28.5
q75 0 126.5 -37.5t76.5 -100.5h3q22 56 66.5 92.5t107.5 43.5v123h-700v70h1050v-70h-269zM415 209.5q42 42.5 42 110.5q0 69 -42 113t-110 44t-111 -43.5t-43 -114.5q0 -68 43.5 -110t110.5 -42q68 0 110 42.5zM803 433.5q-43 43.5 -110 43.5q-69 0 -111 -44t-42 -113
q0 -68 42 -110.5t110 -42.5q67 0 110.5 42t43.5 110q0 71 -43 114.5z" />
    <glyph glyph-name="dvKx_RA" horiz-adv-x="1042" 
d="M590 670v-217q22 48 66 77t107 29q60 0 108 -29t74.5 -80.5t26.5 -117.5q0 -71 -27 -123t-74.5 -79.5t-107.5 -27.5q-37 0 -62 7v66q16 -4 42 -4q63 0 104 42.5t41 116.5q0 71 -42 114t-106 43q-73 0 -110.5 -49.5t-39.5 -116.5v-321h-79v207q-15 -31 -43 -56l-199 -197
h-93l155 150h-1q-61 0 -109.5 27.5t-76 79t-27.5 119.5t27.5 120t76.5 80.5t112 28.5q66 0 110.5 -28t67.5 -75v214h-537v70h1094v-70h-478zM488 240.5q23 41.5 23 86.5v1q0 40 -17 76.5t-52 59.5t-86 23q-66 0 -110 -42.5t-44 -114.5q0 -75 43 -118.5t111 -43.5q26 0 47 6
l10 10l8 -3q44 18 67 59.5zM123 99q15 -15 15 -38q0 -22 -15 -37t-37 -15t-37.5 15t-15.5 37q0 23 15.5 38t37.5 15t37 -15z" />
    <glyph glyph-name="dvKHx_RA" horiz-adv-x="933" 
d="M960 740v-70h-132v-670h-83v217q-21 -37 -59 -59t-91 -22q-21 0 -39 3q-23 -44 -55 -75l-202 -208h-90v5l140 139h-16q-114 0 -181.5 64.5t-67.5 178.5v155h35q66 0 104 33.5t38 117.5v121h-287v70h986zM429.5 95.5q38.5 26.5 59.5 68.5q-43 26 -67.5 73t-24.5 107
q0 59 26 105t71 71t101 25q53 0 91 -22t59 -59v206h-400v-131q0 -105 -49 -153t-130 -49v-102q0 -75 45.5 -120.5t123.5 -45.5q56 0 94.5 26.5zM685.5 221.5q30.5 20.5 45 52.5t14.5 67q0 55 -33.5 97t-100.5 42q-59 0 -99 -37t-40 -99q0 -67 39.5 -105t99.5 -38
q44 0 74.5 20.5zM64.376 -106.605q-14.9824 14.9824 -14.9824 36.5205q0 22.4736 14.9824 37.9238t37.4561 15.4502t37.4561 -15.4502t14.9824 -37.9238q0 -21.5381 -14.9824 -36.5205t-37.4561 -14.9824t-37.4561 14.9824z" />
    <glyph glyph-name="dvGx_RA" horiz-adv-x="745" 
d="M772 740v-70h-132v-670h-81v251l-269 -271h-98l365 356v334h-178v-217q0 -78 -40.5 -126.5t-124.5 -48.5q-80 0 -123 46.5t-43 123.5v31h81v-31q0 -42 20 -70t63 -28q46 0 64.5 28.5t18.5 71.5v220h-321v70h798zM60.376 71.3945q-14.9824 14.9824 -14.9824 36.5205
q0 22.4736 14.9824 37.9238t37.4561 15.4502t37.4561 -15.4502t14.9824 -37.9238q0 -21.5381 -14.9824 -36.5205t-37.4561 -14.9824t-37.4561 14.9824z" />
    <glyph glyph-name="dvJx_RA" horiz-adv-x="840" 
d="M867 670h-132v-670h-78v242l-261 -275h-93l352 359v107h-196v-31q0 -90 -51.5 -145.5t-140.5 -55.5q-90 0 -141 55.5t-51 145.5v100h84v-98q0 -59 29 -94.5t80 -35.5q52 0 82.5 35.5t30.5 94.5v98h274v168h-681v70h893v-70zM106.376 7.39453
q-14.9824 14.9824 -14.9824 36.5205q0 22.4736 14.9824 37.9238t37.4561 15.4502t37.4561 -15.4502t14.9824 -37.9238q0 -21.5381 -14.9824 -36.5205t-37.4561 -14.9824t-37.4561 14.9824z" />
    <glyph glyph-name="dvPHx_RA" horiz-adv-x="1046" 
d="M592 670v-215q22 47 67 75.5t109 28.5q60 0 108 -28.5t74.5 -79.5t26.5 -117q0 -72 -27 -124.5t-74.5 -80t-107.5 -27.5q-36 0 -65 8v65q23 -5 45 -5q64 0 104 43t40 117q0 71 -42 114t-105 43q-76 0 -114.5 -51t-38.5 -123v-313h-84v282q-13 -22 -33 -39l-238 -255h-92
l208 213h-3q-100 0 -152.5 64.5t-52.5 175.5v229h-171v70h1098v-70h-480zM508 670h-279v-229q0 -82 35 -127.5t106 -45.5q65 0 101.5 43t36.5 108v251zM119 177q15 -15 15 -38q0 -22 -15 -37t-37 -15t-37.5 15t-15.5 37q0 23 15.5 38t37.5 15t37 -15z" />
    <glyph glyph-name="dvK_R" horiz-adv-x="738" 
d="M543 670v-216q21 48 65 76.5t108 28.5q60 0 108 -29t74.5 -81t26.5 -119h-85q0 71 -42 114t-105 43q-74 0 -111.5 -49.5t-38.5 -116.5v-321h-80v205q-16 -33 -42 -54l-200 -197h-92l155 150h-1q-61 0 -109.5 27.5t-76 79t-27.5 119.5t27.5 120t76.5 80.5t112 28.5
q65 0 110 -28t67 -74v213h-489v70h951v-70h-382zM440 241q23 41 23 86v1q0 40 -16.5 76.5t-51.5 59.5t-86 23q-66 0 -110.5 -42.5t-44.5 -114.5q0 -75 43 -118.5t111 -43.5q28 0 48 7l10 9l8 -3q43 19 66 60z" />
    <glyph glyph-name="dvKH_R" horiz-adv-x="675" 
d="M296 386q-49 -48 -130 -49v-102q0 -75 45.5 -120.5t123.5 -45.5q57 0 96 27.5t60 70.5q-44 26 -68.5 70.5t-24.5 102.5q0 94 59.5 149t156.5 55t156.5 -55t59.5 -149q0 -63 -28 -109t-77 -70.5t-111 -24.5q-30 0 -57 6q-23 -48 -56 -78l-202 -208h-90v5l140 139h-16
q-114 0 -181.5 64.5t-67.5 178.5v155h35q66 0 104 33.5t38 117.5v121h-287v70h856v-70h-485v-131q0 -105 -49 -153zM511 442q-39 -38 -39 -102t39 -102t103 -38q65 0 103.5 38t38.5 102t-38.5 102t-103.5 38q-64 0 -103 -38z" />
    <glyph glyph-name="dvG_R" horiz-adv-x="480" 
d="M574 740v-70h-195v-217q0 -78 -40.5 -126.5t-124.5 -48.5q-80 0 -123 46.5t-43 123.5v31h81v-31q0 -42 20 -70t63 -28q46 0 64.5 28.5t18.5 71.5v220h-321v70h600zM192 -20l382 373v-88l-284 -285h-98z" />
    <glyph glyph-name="dvGH_R" horiz-adv-x="422" 
d="M183 670v-73q0 -60 32 -90t104 -30h47v-69h-53q-73 0 -109.5 -31t-36.5 -81q0 -60 43.5 -90.5t114.5 -30.5q57 0 102 24t70 66t25 95h71q0 -59 -23 -109t-65 -85l-217 -220h-92l168 162q-26 -2 -39 -2q-113 0 -177.5 46.5t-64.5 135.5q0 63 38.5 103t94.5 49v3
q-53 9 -85 46t-32 105v76h-125v70h619v-70h-410z" />
    <glyph glyph-name="dvNG_R" horiz-adv-x="660" 
d="M686 740v-70h-219v-182h-177q-51 0 -85.5 -18t-34.5 -65q0 -43 29.5 -62.5t76.5 -19.5h45q87 0 146 -40t59 -129q0 -76 -55 -122t-156 -46q-111 0 -177 52.5t-68 140.5h83q1 -58 42.5 -93.5t117.5 -35.5q65 0 99.5 29t34.5 75q0 58 -39.5 83t-100.5 25h-41
q-74 0 -127 34.5t-53 111.5q0 73 52 107t129 34h119v121h-412v70h712zM625 430q15 -15 15 -37t-15 -36.5t-37 -14.5t-37 14.5t-15 36.5t15 37t37 15t37 -15zM447 -163l-135 146l-135 -146h-87l166 179h111l167 -179h-87zM273 -177h83l124 -199h-86z" />
    <glyph glyph-name="dvC_R" horiz-adv-x="455" 
d="M618 670h-644v70h644v-70zM594.5 234.5q-24.5 -52.5 -69.5 -86.5l-189 -194h-92l150 146q-8 -1 -25 -1q-64 0 -116 23.5t-81.5 68.5t-29.5 109q0 53 23.5 95t66.5 66h-182v67h363v-67h-35q-71 0 -114.5 -41.5t-43.5 -106.5q0 -66 44.5 -104.5t109.5 -38.5q50 0 89.5 23.5
t61 64.5t21.5 91h72q1 -62 -23.5 -114.5z" />
    <glyph glyph-name="dvCH_R" horiz-adv-x="817" 
d="M559 -121l-135 146l-135 -146h-87l166 179h111l167 -179h-87zM180 670v-102q0 -60 31 -90.5t100 -30.5h22v-67h-20q-77 0 -116 -35.5t-39 -90.5q0 -75 63.5 -115t176.5 -40q88 0 155.5 29.5t105 84.5t37.5 131q0 68 -32.5 105.5t-77.5 37.5q-42 0 -73.5 -28.5
t-31.5 -86.5q0 -40 16 -93h-70q-17 49 -17 101q0 87 51 129t125 42q52 0 94 -24t66.5 -71t24.5 -115q0 -96 -46.5 -167t-131 -109t-195.5 -38q-148 0 -236.5 56.5t-88.5 163.5q0 68 38.5 110t100.5 55v2q-52 9 -84 46t-32 105v105h-122v70h870v-70h-664z" />
    <glyph glyph-name="dvJ_R" horiz-adv-x="545" 
d="M694 740v-70h-720v70h720zM694 429h-235v-27q0 -90 -51.5 -145.5t-140.5 -55.5q-90 0 -141 55.5t-51 145.5v100h84v-98q0 -59 29 -94.5t80 -35.5q52 0 82.5 35.5t30.5 94.5v98h313v-73zM303 -33l391 400v-86l-298 -314h-93z" />
    <glyph glyph-name="dvJH_R" horiz-adv-x="569" 
d="M201 470q-35 -18 -35 -65q0 -43 30 -62.5t79 -19.5h44h392v-64l-238 1q49 -42 49 -116q0 -66 -44.5 -108.5t-127.5 -42.5q-71 0 -111.5 27t-58.5 57v-154h-79v248h74q7 -50 46 -82.5t106 -32.5q58 0 88 28t30 70q0 51 -36 79.5t-105 28.5q-35 0 -53 1q-71 2 -120 37.5
t-49 105.5q0 75 52.5 109.5t130.5 34.5h119v120h-410v70h737v-70h-246v-182h-177q-52 0 -87 -18zM468 -107l243 303v-88l-158 -215h-85z" />
    <glyph glyph-name="dvNY_R" horiz-adv-x="543" 
d="M675 740v-70h-701v70h701zM441 511q58 -49 72 -127h162v-71h-159q-8 -88 -67.5 -144.5t-158.5 -56.5q-64 0 -112.5 24t-76 64t-31.5 86h79q7 -41 45 -71.5t97 -30.5q72 0 111 44t39 110q0 63 -39 106.5t-111 43.5q-60 0 -96 -30t-46 -73h-79q10 75 67 125t153 50
q93 0 151 -49zM353 -79l322 339v-89l-235 -250h-87z" />
    <glyph glyph-name="dvTT_R" horiz-adv-x="650" 
d="M212 434.5q-59 -48.5 -59 -139.5q0 -52 24 -93t66.5 -64t95.5 -23q54 0 96.5 24t66 66.5t23.5 96.5h80q0 -76 -33 -135t-93 -92t-139 -33q-78 0 -139.5 32t-96 89.5t-34.5 131.5q0 83 36.5 141t101.5 88t151 30h23v116h-408v70h703v-70h-213v-187h-101q-92 0 -151 -48.5z
M472 -102l-135 146l-135 -146h-87l166 179h111l167 -179h-87zM300 -115h83l124 -199h-86z" />
    <glyph glyph-name="dvTTH_R" horiz-adv-x="677" 
d="M378 670v-122q65 -8 116.5 -40.5t81.5 -86t30 -122.5q0 -74 -35 -131.5t-96 -89t-137 -31.5t-137 31.5t-96 88.5t-35 132q0 69 29.5 122t81 85.5t115.5 40.5v123h-322v70h728v-70h-324zM499.5 392q-23.5 41 -66 64t-95.5 23t-95.5 -23t-66 -64t-23.5 -93t23.5 -93.5
t66 -64.5t95.5 -23t95.5 23t66 64.5t23.5 93.5t-23.5 93zM475 -103l-135 146l-135 -146h-87l166 179h111l167 -179h-87zM299 -118h83l124 -199h-86z" />
    <glyph glyph-name="dvDD_R" horiz-adv-x="574" 
d="M204.5 470q-34.5 -18 -34.5 -65q0 -43 29.5 -62.5t76.5 -19.5h45q87 0 146 -40t59 -129q0 -76 -55 -122t-156 -46q-111 0 -177 52.5t-68 140.5h83q1 -58 42.5 -93.5t117.5 -35.5q65 0 99.5 29t34.5 75q0 58 -39.5 83t-100.5 25h-41q-74 0 -127 34.5t-53 111.5
q0 73 52 107t129 34h114v121h-407v70h627v-70h-139v-182h-172q-51 0 -85.5 -18zM440 -163l-135 146l-135 -146h-87l166 179h111l167 -179h-87zM265 -177h83l124 -199h-86z" />
    <glyph glyph-name="dvDDH_R" horiz-adv-x="641" 
d="M216.5 442.5q-65.5 -55.5 -65.5 -161.5q0 -61 27 -109t77.5 -75t116.5 -27q73 0 120 36.5t47 96.5q0 45 -28 74t-71 29q-38 0 -64.5 -24.5t-26.5 -63.5q0 -9 2 -19h-62q-3 27 -3 30q0 64 44.5 101t112.5 37q77 0 123 -45.5t46 -118.5q0 -58 -29.5 -102.5t-83.5 -68.5
t-128 -24q-86 0 -154.5 34t-107.5 96.5t-39 145.5q0 89 38 150.5t104.5 92.5t151.5 31h40v112h-430v70h693v-70h-184v-172h-95q-106 0 -171.5 -55.5zM486 -141l-135 146l-135 -146h-87l166 179h111l167 -179h-87zM316 -155h83l124 -199h-86z" />
    <glyph glyph-name="dvNN_R" horiz-adv-x="564" 
d="M662 740v-70h-190v-212q0 -90 -50 -145t-141 -55q-90 0 -140 55.5t-50 144.5v212h-117v70h688zM390 670h-217v-220q0 -54 29.5 -87.5t79.5 -33.5q51 0 79.5 33.5t28.5 87.5v220zM303 -32l359 369v-95l-263 -274h-96z" />
    <glyph glyph-name="dvT_R" horiz-adv-x="426" 
d="M587 740v-70h-613v70h613zM494.5 480q69.5 -52 92.5 -136l-348 -344h-108v4l374 352q-21 49 -66 78.5t-106 29.5q-78 0 -128.5 -46.5t-50.5 -128.5h-83q0 73 32 128t90.5 85t134.5 30q97 0 166.5 -52z" />
    <glyph glyph-name="dvTH_R" horiz-adv-x="472" 
d="M628.5 248q-21.5 -47 -61.5 -81h1l-296 -246h-103v5l218 174q-8 -1 -24 -1q-133 0 -208.5 72.5t-75.5 200.5q0 25 3 52h98q206 0 206 142q0 48 -28.5 79.5t-78.5 31.5q-53 0 -82.5 -31.5t-29.5 -84.5q0 -15 4 -43h-76q-4 30 -4 46q0 86 52.5 135.5t136.5 49.5
q55 0 97 -23.5t65 -65.5t23 -96q0 -100 -69.5 -150.5t-185.5 -50.5h-50q-1 -88 51 -141t151 -53q95 0 155 49.5t60 133.5h73q0 -57 -21.5 -104z" />
    <glyph glyph-name="dvD_R" horiz-adv-x="609" 
d="M208 445q-53 -43 -53 -122q0 -71 42.5 -114t114.5 -43q35 0 67.5 15t53.5 45.5t21 75.5h77v-318h-82v193q-12 -17 -24 -29h1l-209 -206h-92l164 160q-64 0 -113.5 26.5t-77.5 77t-28 119.5q0 76 35 129t95 79.5t135 26.5h73v110h-434v70h661v-70h-143v-182h-149
q-82 0 -135 -43zM449 -96h83l124 -199h-86z" />
    <glyph glyph-name="dvDH_R" horiz-adv-x="428" 
d="M581.5 237q-19.5 -43 -55.5 -74l-222 -227h-93l171 165q-25 -4 -61 -4q-104 0 -168.5 45t-64.5 130q0 62 36.5 99.5t85.5 45.5v3q-54 13 -91 54t-37 110q0 73 47 119t123 46q77 0 121.5 -44t44.5 -115q0 -22 -1 -33h-64l1 24q0 42 -26.5 69.5t-72.5 27.5q-47 0 -74 -29
t-27 -74q0 -56 41.5 -88t110.5 -32h57v-69h-54q-66 0 -101 -29t-35 -77q0 -56 44.5 -84.5t110.5 -28.5q92 0 146 45.5t54 118.5h73q0 -51 -19.5 -94z" />
    <glyph glyph-name="dvN_R" horiz-adv-x="509" 
d="M662 740v-70h-688v70h688zM90.5 414q27.5 44 75 67t107.5 23h389v-70h-256q25 -23 39.5 -57t14.5 -76q0 -56 -25.5 -98t-69.5 -64t-99 -22q-57 0 -103.5 24t-73 67.5t-26.5 101.5q0 60 27.5 104zM357 222.5q35 34.5 35 88.5q0 53 -35 88t-90 35q-56 0 -92 -34.5
t-36 -89.5q0 -54 35.5 -88t92.5 -34q55 0 90 34.5zM296 -73l366 380v-89l-274 -291h-92z" />
    <glyph glyph-name="dvP_R" horiz-adv-x="366" 
d="M168 670v-225q0 -84 37.5 -130.5t114.5 -46.5q69 0 108 44.5t39 110.5h69q0 -56 -20 -102.5t-57 -77.5l-241 -255h-92l209 210q-7 -1 -21 -1q-111 0 -170 66.5t-59 181.5v225h-111v70h562v-70h-368z" />
    <glyph glyph-name="dvPH_R" horiz-adv-x="737" 
d="M531 670v-216q22 48 67 76.5t110 28.5q99 0 153.5 -62t54.5 -167h-84q0 73 -38.5 115t-109.5 42q-76 0 -114.5 -51t-38.5 -123v-313h-83v283q-15 -25 -33 -40l-239 -255h-92l209 213h-3q-100 0 -152.5 64.5t-52.5 175.5v229h-111v70h942v-70h-385zM448 670h-280v-229
q0 -82 35 -127.5t106 -45.5q65 0 102 43.5t37 107.5v251z" />
    <glyph glyph-name="dvB_R" horiz-adv-x="414" 
d="M573 740v-70h-599v70h599zM459.5 534.5q56.5 -34.5 84 -89t27.5 -114.5q0 -48 -16 -90.5t-46 -75.5l-2 -2l-6 -6l-210 -211h-87l155 147q-24 -2 -36 -2q-73 0 -130.5 30t-90 84.5t-32.5 124.5t31.5 124.5t88.5 84.5t131 30q82 0 138.5 -34.5zM199 465l274 -240
q32 45 32 104q0 46 -21 87.5t-62 67.5t-99 26q-73 0 -124 -45zM165.5 233.5q25.5 -40.5 67.5 -62t92 -21.5q75 0 123 45l-276 241q-32 -46 -32 -108q0 -54 25.5 -94.5z" />
    <glyph glyph-name="dvBH_R" horiz-adv-x="510" 
d="M640 457v-68h-199v-61q0 -97 -48 -151.5t-132 -54.5q-83 0 -134 46t-51 121q0 79 54.5 123.5t139.5 44.5h95v91q0 61 -23 95t-71 34q-42 0 -67 -28t-25 -76q0 -17 3 -37h-81q-4 26 -4 41q0 78 46 125t126 47q88 0 130 -57t42 -157v-78h199zM365 389h-95q-52 0 -84 -27
t-32 -73q0 -44 30 -71t76 -27q50 0 77.5 35t27.5 97v66zM270 -74l370 357v-80l-276 -277h-94z" />
    <glyph glyph-name="dvM_R" horiz-adv-x="505" 
d="M413 670v-193h222v-68h-222v-75q0 -97 -47.5 -151.5t-133.5 -54.5q-82 0 -133 48t-51 126q0 82 54 128.5t139 46.5h96v193h-363v70h662v-70h-223zM337 409h-95q-52 0 -84.5 -29t-32.5 -78q0 -47 30 -76t76 -29q51 0 78.5 35t27.5 98v79zM240 -74l394 380v-79l-300 -301
h-94z" />
    <glyph glyph-name="dvY_R" horiz-adv-x="445" 
d="M603.5 255.5q-22.5 -48.5 -64.5 -82.5l-282 -233h-102v5l208 166h-14q-132 0 -206 75t-74 207q0 25 3 47h14q89 0 134 37.5t45 123.5v69h-291v70h651v-70h-278v-82q0 -187 -196 -195v-7q0 -96 54.5 -150t146.5 -54q55 0 100 22.5t71 63t26 92.5h76q1 -56 -21.5 -104.5z
" />
    <glyph glyph-name="dvL_R" horiz-adv-x="904" 
d="M684 670v-133q69 -17 109.5 -75.5t40.5 -147.5q0 -71 -27 -126.5t-81 -87t-130 -31.5q-8 0 -34 2v73q20 -2 29 -2q75 0 117 47t42 124q0 68 -33.5 112t-95.5 44q-66 0 -100 -49.5t-34 -133.5v-15h-70v15q0 83 -32.5 133t-95.5 50q-65 0 -100 -43.5t-35 -112.5
q0 -77 41.5 -124t117.5 -47q7 0 29 2v-73q-26 -2 -34 -2q-76 0 -130 31.5t-81 87t-27 126.5q0 70 26 122t73.5 79.5t108.5 27.5q73 0 115 -42t58 -103h2q15 55 51 94.5t98 48.5v129h-628v70h956v-70h-246zM752 -163l-135 146l-135 -146h-87l166 179h111l167 -179h-87z
M576 -177h83l124 -199h-86z" />
    <glyph glyph-name="dvV_R" horiz-adv-x="394" 
d="M569 740v-70h-595v70h595zM458.5 529q56.5 -34 83.5 -88t27 -113q0 -51 -21 -98.5t-62 -80.5l-198 -201h-90l157 149q-24 -2 -36 -2q-74 0 -130.5 29.5t-87.5 83t-31 124.5q0 68 31.5 120.5t88 81.5t129.5 29q83 0 139.5 -34zM199.5 208.5q47.5 -45.5 121.5 -45.5
q55 0 93 24.5t56 62.5t18 78q0 42 -18 80.5t-56 62.5t-93 24q-47 0 -85.5 -20t-61 -57.5t-22.5 -86.5q0 -77 47.5 -122.5z" />
    <glyph glyph-name="dvSH_R" horiz-adv-x="498" 
d="M543 281v-75l-227 -211h-100v5l264 240l-162 87l-178 -137h-95v11l208 160q-72 42 -110 92t-38 115q0 50 23.5 91.5t67 65.5t101.5 24q59 0 103.5 -23.5t68 -64t23.5 -88.5q0 -61 -27.5 -107t-89.5 -95zM311 406l8 6q48 36 72.5 71t24.5 83q0 46 -32 79.5t-85 33.5
q-49 0 -81.5 -31.5t-34.5 -75.5q-2 -50 23.5 -86.5t79.5 -66.5z" />
    <glyph glyph-name="dvSS_R" horiz-adv-x="387" 
d="M166 670v-1l376 -298q0 -31 -15 -63t-43 -58l-261 -262h-92l213 205q-9 -1 -26 -1q-114 0 -173.5 68t-59.5 185v225h-111v70h568v-70h-376zM166 603v-160q0 -86 38.5 -133t116.5 -47q60 0 98 28.5t48 68.5z" />
    <glyph glyph-name="dvS_R" horiz-adv-x="524" 
d="M413 486q-16 -41 -45 -68h278v-65h-484v-170q0 -54 25.5 -87t76.5 -33q44 0 70 33.5t26 88.5v12h73q1 -7 1 -16q0 -88 -45 -139t-124 -51q-88 0 -135.5 54t-47.5 142v224h94q84 0 127.5 45t43.5 123v91h-373v70h672v-70h-217v-91q0 -52 -16 -93zM413 -57l233 300v-94
l-151 -206h-82z" />
    <glyph glyph-name="dvH_R" horiz-adv-x="586" 
d="M211 473q-30 -19 -30 -61q0 -32 19.5 -53t53.5 -31q27 5 51 5q79 0 133.5 -37t71.5 -92l-112 -115h-78l115 116q-18 27 -50 45t-77 18q-71 0 -113 -48t-42 -119t41.5 -117.5t115.5 -46.5q58 0 95 28.5t49 66.5h74q-7 -44 -35 -81t-76 -59t-110 -22q-73 0 -125.5 30.5
t-79.5 84t-27 119.5t29 118.5t81 81.5q-39 16 -63 47t-24 76q0 61 45 93.5t118 32.5h130v117h-417v70h638v-70h-141v-178h-183q-47 0 -77 -19zM263 -210h83l124 -199h-86z" />
    <glyph glyph-name="dvLL_R" horiz-adv-x="997" 
d="M-26 740h1050v-70h-1050v70zM180 123.5q-51 28.5 -80.5 79.5t-29.5 117q0 68 29.5 120t80.5 80.5t114 28.5q75 0 126.5 -37.5t76.5 -100.5h3q25 63 77 100.5t127 37.5q62 0 113.5 -28.5t81 -80.5t29.5 -120q0 -66 -29.5 -117t-81 -79.5t-114.5 -28.5q-75 0 -129.5 39.5
t-73.5 100.5h-3q-20 -62 -74 -101t-129 -39q-63 0 -114 28.5zM415 209.5q42 42.5 42 110.5q0 69 -42 113t-110 44t-111 -43.5t-43 -114.5q0 -68 43.5 -110t110.5 -42q68 0 110 42.5zM802.5 209q43.5 42 43.5 110q0 71 -43 114.5t-110 43.5q-69 0 -111 -44t-42 -113
q0 -68 42 -110.5t110 -42.5q67 0 110.5 42zM841 -54l-135 146l-135 -146h-87l166 179h111l167 -179h-87z" />
    <glyph glyph-name="dvKx_R" horiz-adv-x="785" 
d="M590 670v-217q22 48 66 77t107 29q60 0 108 -29t74.5 -81t26.5 -119h-84q0 71 -42 114t-106 43q-73 0 -110.5 -49.5t-39.5 -116.5v-321h-79v207q-15 -31 -43 -56l-199 -197h-93l155 150h-1q-61 0 -109.5 27.5t-76 79t-27.5 119.5t27.5 120t76.5 80.5t112 28.5
q66 0 110.5 -28t67.5 -75v214h-537v70h998v-70h-382zM488 240.5q23 41.5 23 86.5v1q0 40 -17 76.5t-52 59.5t-86 23q-66 0 -110 -42.5t-44 -114.5q0 -75 43 -118.5t111 -43.5q26 0 47 6l10 10l8 -3q44 18 67 59.5zM123 99q15 -15 15 -38q0 -22 -15 -37t-37 -15t-37.5 15
t-15.5 37q0 23 15.5 38t37.5 15t37 -15z" />
    <glyph glyph-name="dvKHx_R" horiz-adv-x="675" 
d="M296 386q-49 -48 -130 -49v-102q0 -75 45.5 -120.5t123.5 -45.5q57 0 96 27.5t60 70.5q-44 26 -68.5 70.5t-24.5 102.5q0 94 59.5 149t156.5 55t156.5 -55t59.5 -149q0 -63 -28 -109t-77 -70.5t-111 -24.5q-30 0 -57 6q-23 -48 -56 -78l-202 -208h-90v5l140 139h-16
q-114 0 -181.5 64.5t-67.5 178.5v155h35q66 0 104 33.5t38 117.5v121h-287v70h856v-70h-485v-131q0 -105 -49 -153zM511 442q-39 -38 -39 -102t39 -102t103 -38q65 0 103.5 38t38.5 102t-38.5 102t-103.5 38q-64 0 -103 -38zM64.376 -106.605
q-14.9824 14.9824 -14.9824 36.5205q0 22.4736 14.9824 37.9238t37.4561 15.4502t37.4561 -15.4502t14.9824 -37.9238q0 -21.5381 -14.9824 -36.5205t-37.4561 -14.9824t-37.4561 14.9824z" />
    <glyph glyph-name="dvGx_R" horiz-adv-x="480" 
d="M574 740v-70h-195v-217q0 -78 -40.5 -126.5t-124.5 -48.5q-80 0 -123 46.5t-43 123.5v31h81v-31q0 -42 20 -70t63 -28q46 0 64.5 28.5t18.5 71.5v220h-321v70h600zM192 -20l382 373v-88l-284 -285h-98zM60.376 71.3945q-14.9824 14.9824 -14.9824 36.5205
q0 22.4736 14.9824 37.9238t37.4561 15.4502t37.4561 -15.4502t14.9824 -37.9238q0 -21.5381 -14.9824 -36.5205t-37.4561 -14.9824t-37.4561 14.9824z" />
    <glyph glyph-name="dvJx_R" horiz-adv-x="545" 
d="M694 740v-70h-720v70h720zM694 429h-235v-27q0 -90 -51.5 -145.5t-140.5 -55.5q-90 0 -141 55.5t-51 145.5v100h84v-98q0 -59 29 -94.5t80 -35.5q52 0 82.5 35.5t30.5 94.5v98h313v-73zM303 -33l391 400v-86l-298 -314h-93zM106.376 7.39453
q-14.9824 14.9824 -14.9824 36.5205q0 22.4736 14.9824 37.9238t37.4561 15.4502t37.4561 -15.4502t14.9824 -37.9238q0 -21.5381 -14.9824 -36.5205t-37.4561 -14.9824t-37.4561 14.9824z" />
    <glyph glyph-name="dvPHx_R" horiz-adv-x="798" 
d="M592 670v-215q22 47 67 75.5t109 28.5q99 0 154 -62t55 -167h-85q0 73 -38 115t-109 42q-76 0 -114.5 -51t-38.5 -123v-313h-84v282q-13 -22 -33 -39l-238 -255h-92l208 213h-3q-100 0 -152.5 64.5t-52.5 175.5v229h-171v70h1003v-70h-385zM508 670h-279v-229
q0 -82 35 -127.5t106 -45.5q65 0 101.5 43t36.5 108v251zM119 177q15 -15 15 -38q0 -22 -15 -37t-37 -15t-37.5 15t-15.5 37q0 23 15.5 38t37.5 15t37 -15z" />
    <glyph glyph-name="dvK_KA" horiz-adv-x="1752" 
d="M1301 670v-216q21 48 65 76.5t108 28.5q60 0 108 -29t74.5 -80.5t26.5 -117.5q0 -71 -27 -123t-74.5 -79.5t-107.5 -27.5q-37 0 -62 7v66q16 -4 42 -4q63 0 103.5 42.5t40.5 116.5q0 71 -42 114t-105 43q-75 0 -112.5 -49.5t-37.5 -116.5v-321h-80v202q-23 -48 -69 -76.5
t-111 -28.5q-62 0 -110.5 28.5t-75.5 81.5t-27 123h-1q0 71 -39 114t-102 43q-73 0 -108 -48.5t-35 -117.5v-321h-80v202q-23 -48 -69 -76.5t-111 -28.5q-62 0 -110.5 28.5t-75.5 81.5t-27 123q0 68 27.5 120t76.5 80.5t112 28.5q65 0 110 -28t67 -74v213h-489v70h1805v-70
h-478zM803.5 537.5q41.5 -21.5 68.5 -61.5q29 40 73 61.5t99 21.5q65 0 110 -28t67 -74v213h-678v-212q21 46 62.5 73.5t104.5 27.5q52 0 93.5 -21.5zM394 191.5q35 23.5 52 60.5t17 75v1q0 40 -16.5 76.5t-51.5 59.5t-86 23q-66 0 -110.5 -42.5t-44.5 -114.5
q0 -75 43 -118.5t111 -43.5q51 0 86 23.5zM1152 191.5q35 23.5 52 60.5t17 75v1q0 40 -16.5 76.5t-51.5 59.5t-86 23q-66 0 -110.5 -42.5t-44.5 -114.5q0 -75 43 -118.5t111 -43.5q51 0 86 23.5z" />
    <glyph glyph-name="dvKx_KxA" horiz-adv-x="1752" 
d="M1301 670v-216q21 48 65 76.5t108 28.5q60 0 108 -29t74.5 -80.5t26.5 -117.5q0 -71 -27 -123t-74.5 -79.5t-107.5 -27.5q-37 0 -62 7v66q16 -4 42 -4q63 0 103.5 42.5t40.5 116.5q0 71 -42 114t-105 43q-75 0 -112.5 -49.5t-37.5 -116.5v-321h-80v202q-23 -48 -69 -76.5
t-111 -28.5q-62 0 -110.5 28.5t-75.5 81.5t-27 123h-1q0 71 -39 114t-102 43q-73 0 -108 -48.5t-35 -117.5v-321h-80v202q-23 -48 -69 -76.5t-111 -28.5q-62 0 -110.5 28.5t-75.5 81.5t-27 123q0 68 27.5 120t76.5 80.5t112 28.5q65 0 110 -28t67 -74v213h-489v70h1805v-70
h-478zM802.5 535.5q40.5 -23.5 64.5 -66.5q29 43 74.5 66.5t102.5 23.5q65 0 110 -28t67 -74v213h-678v-212q21 46 62.5 73.5t104.5 27.5q52 0 92.5 -23.5zM394 191.5q35 23.5 52 60.5t17 75v1q0 40 -16.5 76.5t-51.5 59.5t-86 23q-66 0 -110.5 -42.5t-44.5 -114.5
q0 -75 43 -118.5t111 -43.5q51 0 86 23.5zM1152 191.5q35 23.5 52 60.5t17 75v1q0 40 -16.5 76.5t-51.5 59.5t-86 23q-66 0 -110.5 -42.5t-44.5 -114.5q0 -75 43 -118.5t111 -43.5q51 0 86 23.5zM309 1.5q16 -16.5 16 -40.5q0 -23 -16 -39t-40 -16t-40 16t-16 39
q0 24 16 40.5t40 16.5t40 -16.5zM1067 1.5q16 -16.5 16 -40.5q0 -23 -16 -39t-40 -16t-40 16t-16 39q0 24 16 40.5t40 16.5t40 -16.5z" />
    <glyph glyph-name="dvK_KHA" horiz-adv-x="1677" 
d="M1703 670h-132v-670h-82v219q-21 -38 -59 -60.5t-92 -22.5q-19 0 -37 3q-31 -64 -88 -103t-137 -39q-114 0 -181.5 64.5t-67.5 174.5v94q0 71 -39 114t-102 43q-73 0 -108 -48.5t-35 -117.5v-321h-80v202q-23 -48 -69 -76.5t-111 -28.5q-62 0 -110.5 28.5t-75.5 81.5
t-27 123q0 68 27.5 120t76.5 80.5t112 28.5q65 0 110 -28t67 -74v213h-489v70h1729v-70zM832 513.5q49 -41.5 65 -113.5q51 8 79 43t28 106v121h-461v-215q21 46 62.5 73t104.5 27q73 0 122 -41.5zM1173.5 95.5q38.5 26.5 59.5 68.5q-43 26 -67.5 72.5t-24.5 107.5
q0 59 25.5 105t70.5 71t101 25q55 0 92.5 -22.5t58.5 -60.5v208h-401v-131q0 -105 -49 -153t-129 -49v-102q0 -75 45.5 -120.5t123.5 -45.5q56 0 94.5 26.5zM394 191.5q35 23.5 52 60.5t17 75v1q0 40 -16.5 76.5t-51.5 59.5t-86 23q-66 0 -110.5 -42.5t-44.5 -114.5
q0 -75 43 -118.5t111 -43.5q51 0 86 23.5zM1428.5 221.5q30.5 20.5 45.5 52.5t15 67q0 55 -34 97t-101 42q-58 0 -98 -37t-40 -99q0 -67 39.5 -105t98.5 -38q44 0 74.5 20.5z" />
    <glyph glyph-name="dvK_CA" horiz-adv-x="1373" 
d="M1400 670h-132v-670h-84v203q-28 -48 -78.5 -75.5t-113.5 -27.5q-59 0 -107.5 22.5t-76.5 67.5t-28 108q0 58 26.5 103t75.5 69h-176q-84 0 -123.5 -45.5t-39.5 -112.5v-312h-80v202q-23 -48 -69 -76.5t-111 -28.5q-62 0 -110.5 28.5t-75.5 81.5t-27 123q0 68 27.5 120
t76.5 80.5t112 28.5q65 0 110 -28t67 -74v213h-489v70h1426v-70zM1184 670h-641v-231q22 45 68 71.5t117 26.5h323v-67h-35q-70 0 -113.5 -43t-43.5 -110q0 -69 44.5 -108t109.5 -39q50 0 89 23.5t60.5 64.5t21.5 91v321zM394 191.5q35 23.5 52 60.5t17 75v1
q0 40 -16.5 76.5t-51.5 59.5t-86 23q-66 0 -110.5 -42.5t-44.5 -114.5q0 -75 43 -118.5t111 -43.5q51 0 86 23.5z" />
    <glyph glyph-name="dvK_JA" horiz-adv-x="1591" 
d="M1618 670h-132v-670h-83v427h-190v-94q0 -90 -52.5 -146t-142.5 -56q-60 0 -103 24.5t-65.5 67.5t-22.5 97v12q0 71 -39 113t-102 42q-73 0 -108 -48.5t-35 -117.5v-321h-80v202q-23 -48 -69 -76.5t-111 -28.5q-62 0 -110.5 28.5t-75.5 81.5t-27 123q0 68 27.5 120
t76.5 80.5t112 28.5q65 0 110 -28t67 -74v213h-489v70h1644v-70zM1403 670h-860v-212q21 46 62.5 73.5t104.5 27.5q60 0 105.5 -27t70 -75t24.5 -108v-15q0 -59 29 -94.5t80 -35.5q52 0 82 35.5t30 94.5v165h272v171zM394 191.5q35 23.5 52 60.5t17 75v1q0 40 -16.5 76.5
t-51.5 59.5t-86 23q-66 0 -110.5 -42.5t-44.5 -114.5q0 -75 43 -118.5t111 -43.5q51 0 86 23.5z" />
    <glyph glyph-name="dvK_TTA" horiz-adv-x="1405" 
d="M967 434.5q-59 -48.5 -59 -139.5q0 -52 24 -93t66.5 -64t95.5 -23q54 0 96.5 24t66 66.5t23.5 96.5h80q0 -76 -33 -135t-93 -92t-139 -33q-78 0 -139.5 32t-96 89.5t-34.5 131.5q0 13 2 37q-1 71 -40 113t-101 42q-73 0 -108 -48.5t-35 -117.5v-321h-80v202
q-23 -48 -69 -76.5t-111 -28.5q-62 0 -110.5 28.5t-75.5 81.5t-27 123q0 68 27.5 120t76.5 80.5t112 28.5q65 0 110 -28t67 -74v213h-489v70h1458v-70h-213v-187h-101q-92 0 -151 -48.5zM810.5 533q43.5 -26 68.5 -73q37 46 98 70t137 24h23v116h-594v-212q21 46 62.5 73.5
t104.5 27.5q57 0 100.5 -26zM394 191.5q35 23.5 52 60.5t17 75v1q0 40 -16.5 76.5t-51.5 59.5t-86 23q-66 0 -110.5 -42.5t-44.5 -114.5q0 -75 43 -118.5t111 -43.5q51 0 86 23.5z" />
    <glyph glyph-name="dvK_NNA" horiz-adv-x="1587" 
d="M1613 670h-131v-670h-84v670h-195v-287q0 -90 -50 -145t-141 -55q-89 0 -139 55t-51 142q-12 49 -48.5 78t-87.5 29q-73 0 -108 -48.5t-35 -117.5v-321h-80v202q-23 -48 -69 -76.5t-111 -28.5q-62 0 -110.5 28.5t-75.5 81.5t-27 123q0 68 27.5 120t76.5 80.5t112 28.5
q65 0 110 -28t67 -74v213h-489v70h1639v-70zM822 514v156h-279v-215q21 44 62 70.5t103 26.5q66 0 114 -38zM1121 670h-217v-294q0 -55 29.5 -88.5t79.5 -33.5q51 0 79.5 33.5t28.5 88.5v294zM394 191.5q35 23.5 52 60.5t17 75v1q0 40 -16.5 76.5t-51.5 59.5t-86 23
q-66 0 -110.5 -42.5t-44.5 -114.5q0 -75 43 -118.5t111 -43.5q51 0 86 23.5z" />
    <glyph glyph-name="dvK_TA" horiz-adv-x="1094" 
d="M620 670v-285q24 48 71.5 76.5t116.5 28.5q62 0 111 -29.5t77 -82.5t28 -121q0 -73 -28 -127t-78.5 -82.5t-115.5 -28.5q-34 0 -69 7v66q24 -4 49 -4q71 0 114.5 45t43.5 123q0 48 -20.5 85t-55.5 57t-78 20q-56 0 -93.5 -24t-55 -61t-17.5 -77v-256h-81v412h-133
q-96 0 -150.5 -43t-54.5 -128q0 -82 48.5 -127.5t139.5 -45.5h20v-66h-32q-118 0 -188.5 61t-70.5 171q0 63 24 108t67 72h-171v70h501v186h-565v70h1147v-70h-501z" />
    </font>
</defs>
</svg>
